А ты думал, что девушки не бывают в Сети? / Netoge no Yome [S01] (2016) HDTVRip 720p | AniDub, SHIZA Project скачать торрент

Модератор: Модераторы аниме

  • Статистика раздачи
Размер: 4.99 ГБ   |  Зарегистрирован: 01 авг 2016, 21:46   |   .torrent скачан: 0 раз
Сидеров: 0  [ 0 байт/сек ]     Личеров: 0  [ 0 байт/сек ]  
Список файлов : Кто скачал : Раздают : Скачивают : Кто благодарил : История : Не раздающие : Запрашивали сидеров : Внешние трекеры 
  

А ты думал, что девушки не бывают в Сети? / Netoge no Yome [S01] (2016) HDTVRip 720p | AniDub, SHIZA Project

Сообщение Мисаки Аюдзава » 01 авг 2016, 21:46

Название: А ты думал, что девушки не бывают в Сети?
Оригинальное название: Netoge no Yome / Netoge no Yome wa Onnanoko ja Nai to Omotta?
Год выхода: 2016
Жанр: Комедия, этти, школа
Режиссер: Янаги Синсукэ
Художник: Миякэ Масакадзу, Санан Юри
В ролях: Тоёнага Тосиюки, Хидака Рина, Минасэ Инори, Итимити Мао, Овада Хитоми, Мацукадзэ Масая, Хатано Ватару, Нандзё Ёсино
О фильме:
Хидэки Нишимура — обычный паренёк, который долгое время играет в MMORPG-игру под названием «Легендарный век». Однажды, познакомившись в игре с девушкой, он признаётся ей в своих чувствах, но в ответ узнает... что это парень! Спустя два года он также верен собственному принципу, что девушка в игре — это всего лишь женский персонаж, а парень — мужской персонаж. Вступив через некоторое время в гильдию, а также поженившись в игре с девушкой-сотоварищем Ако, глава гильдии заявляет, что состоится первая оффлайн*-встреча! Теперь Хидэки очень интересно, кем всё же окажутся участники маленькой гильдии на самом деле, и к чему это приведёт.

World Art | MAL

Страна: Япония
Студия: Project No.9
Продолжительность: 00:24:30
Язык: Русский, Японский
Перевод: Любительский (двухголосый, закадровый)

Файл
Качество: HDTVRip
Формат: MKV
Кодек: H.264
Аудио кодек: AAC
Видео: 1280x720, 23.976 fps, 2100 kbps
Аудио RUS: 48.0 kHz, AAC, 2 ch, 192 kbps - SHIZA Project
Аудио RUS: 48.0 kHz, AAC, 2 ch, 192 kbps - AniDub
Аудио JAP: 48.0 kHz, AAC, 2 ch, 192 kbps
Субтитры: русские (встроенные полный перевод, ASS) - Gerale, Komugi-chan, Ryuji

Релиз от:
Озвучивание: Snowly, Лизавета
Перевод: AOS
Тайминг и работа со звуком: HipsterCat, Daelit, Шмель
Релиз от:
Озвучивание: Fuurou, Nika Lenina
Перевод: FooBoo
Тайминг и работа со звуком: NeSqUiK


01. А ты думал, что твоя жена в онлайн-игре на самом деле не девушка?
02. Я думаю, нам не стоит играть в сетевые игры в школе.
03. Ты до сих пор не веришь, что твоя жена в онлайн-игре девушка?
04. Я думал, что ее секрет никто не узнает
05. Я думал, если я реинкарнируюсь, то получу еще один шанс
06. Думал, признавшись в любви, достигнешь успеха?
07. Думал, если сгонять на море, станешь реальщиком?
08. Думал отказаться от роли мужа в игре?
09. Думала, совместная ночевка поможет наладить отношения?
10. Думал постараться на культурном фестивале?
11. Думала, можно выиграть, полагаясь на кого-то?
12. Моя игровая жена — точно девушка!
General
Format : Matroska
Format version : Version 4 / Version 2
File size : 466 MiB
Duration : 24mn 30s
Overall bit rate : 2 660 Kbps
Encoded date : UTC 2016-04-23 09:19:05
Writing application : mkvmerge v8.3.0 ('Over the Horizon') 64bit
Writing library : libebml v1.3.1 + libmatroska v1.4.2

Video
ID : 1
Format : AVC
Format/Info : Advanced Video Codec
Format profile : [email protected]
Format settings, CABAC : Yes
Format settings, ReFrames : 4 frames
Codec ID : V_MPEG4/ISO/AVC
Duration : 24mn 29s
Bit rate : 2 107 Kbps
Width : 1 280 pixels
Height : 720 pixels
Display aspect ratio : 16:9
Frame rate mode : Constant
Frame rate : 23.976 (24000/1001) fps
Color space : YUV
Chroma subsampling : 4:2:0
Bit depth : 8 bits
Scan type : Progressive
Bits/(Pixel*Frame) : 0.095
Stream size : 369 MiB (79%)
Writing library : x264 core 129 r2245+729M 1a52e03
Encoding settings : cabac=1 / ref=4 / deblock=1:1:-1 / analyse=0x3:0x113 / me=umh / subme=9 / psy=1 / fade_compensate=0.00 / psy_rd=1.00:0.00 / mixed_ref=1 / me_range=24 / chroma_me=1 / trellis=2 / 8x8dct=1 / cqm=0 / deadzone=21,11 / fast_pskip=1 / chroma_qp_offset=-2 / threads=8 / lookahead_threads=1 / sliced_threads=0 / nr=0 / decimate=1 / interlaced=0 / bluray_compat=0 / constrained_intra=0 / fgo=0 / bframes=9 / b_pyramid=2 / b_adapt=2 / b_bias=0 / direct=1 / weightb=1 / open_gop=0 / weightp=2 / keyint=240 / keyint_min=24 / scenecut=40 / intra_refresh=0 / rc=crf / mbtree=0 / crf=18.5 / qcomp=0.72 / qpmin=0 / qpmax=69 / qpstep=4 / ip_ratio=1.40 / pb_ratio=1.30 / aq=1:0.85
Language : Japanese
Default : No
Forced : No
Color range : Limited
Color primaries : BT.709
Transfer characteristics : BT.709
Matrix coefficients : BT.709

Audio #1
ID : 2
Format : AAC
Format/Info : Advanced Audio Codec
Format profile : LC
Codec ID : A_AAC
Duration : 24mn 29s
Bit rate : 165 Kbps
Channel(s) : 2 channels
Channel positions : Front: L R
Sampling rate : 48.0 KHz
Frame rate : 46.875 fps (1024 spf)
Compression mode : Lossy
Stream size : 29.0 MiB (6%)
Title : SHIZA Project
Language : Russian
Default : Yes
Forced : No

Audio #2
ID : 3
Format : AAC
Format/Info : Advanced Audio Codec
Format profile : LC
Codec ID : A_AAC
Duration : 24mn 29s
Bit rate : 192 Kbps
Channel(s) : 2 channels
Channel positions : Front: L R
Sampling rate : 48.0 KHz
Frame rate : 46.875 fps (1024 spf)
Compression mode : Lossy
Stream size : 33.7 MiB (7%)
Title : AniDub
Language : Russian
Default : No
Forced : No

Audio #3
ID : 4
Format : AAC
Format/Info : Advanced Audio Codec
Format profile : LC
Codec ID : A_AAC
Duration : 24mn 30s
Bit rate : 192 Kbps
Channel(s) : 2 channels
Channel positions : Front: L R
Sampling rate : 48.0 KHz
Frame rate : 46.875 fps (1024 spf)
Compression mode : Lossy
Stream size : 33.6 MiB (7%)
Title : Original
Language : Japanese
Default : No
Forced : No

Text
ID : 5
Format : ASS
Codec ID : S_TEXT/ASS
Codec ID/Info : Advanced Sub Station Alpha
Duration : 24mn 20s
Bit rate : 179 bps
Count of elements : 465
Compression mode : Lossless
Stream size : 32.0 KiB (0%)
Title : Полные субтитры
Language : Russian
Default : Yes
Forced : No
   
Торрент: Зарегистрирован [01 авг 2016, 21:46] Скачать торрент
Скачать торрент
[ Размер 26.3 КБ / Просмотров 68 ]

Статус:
 
Приватный: Нет (DHT включён)
Размер: 4.99 ГБ (5 359 963 428 байт)
   
Аватара пользователя
Вникающий пир
Вникающий пир
 
Раздал: 2.09 ГБ
Скачал: 4.62 ГБ
Ратио: None.
Сообщения: 91
Фото: 13
Зарегистрирован: 25 апр 2014, 18:56
Откуда: Новороссийск
  • Личное сообщение
  • Сайт

Вернуться в HD и BDrip

Кто сейчас на конференции

Зарегистрированные пользователи: нет зарегистрированных пользователей

cron
Ресурс не предоставляет электронные версии произведений, а занимается лишь коллекционированием и каталогизацией ссылок, присылаемых и публикуемых на форуме нашими читателями. Если вы являетесь правообладателем какого-либо представленного материала и не желаете чтобы ссылка на него находилась в нашем каталоге, свяжитесь с нами и мы незамедлительно удалим её. Файлы для обмена на трекере предоставлены пользователями сайта, и администрация не несёт ответственности за их содержание. Просьба не заливать файлы, защищенные авторскими правами, а также файлы нелегального содержания!
cron