Изгнанник / Last Exile / Последний изгой / Последний Изгнанник [TV] [26 из 26] [Без хардсаба] [JAP, SUB] [2003 г., паропанк, авиация, приключения, фантастика, драма, BDRemux] [1080i] скачать торрент

Модератор: Модераторы аниме

  • Статистика раздачи
Размер: 92.98 ГБ   |  Зарегистрирован: 17 мар 2016, 22:55   |   .torrent скачан: 0 раз
Сидеров: 0  [ 0 байт/сек ]     Личеров: 0  [ 0 байт/сек ]  
Список файлов : Кто скачал : Раздают : Скачивают : Кто благодарил : История : Не раздающие : Запрашивали сидеров : Внешние трекеры 
  

Изгнанник / Last Exile / Последний изгой / Последний Изгнанник [TV] [26 из 26] [Без хардсаба] [JAP, SUB] [2003 г., паропанк, авиация, приключения, фантастика, драма, BDRemux] [1080i]

Сообщение Фаромир брат » 17 мар 2016, 22:55

Изгнанник / Last Exile / Последний изгой / Последний Изгнанник

Страна: Япония
Год выпуска: 2003 г.
Жанр: паропанк, авиация, приключения, фантастика, драма
Тип: TV
Продолжительность: 26 эп., ~25 мин на эпизод
Режиссер: Тигира Койти / Chigira Kouichi
Студия: Gonzo

Описание:
Действие происходит в мире под названием Престел, состоящем из двух государств, которые находятся в состоянии войны — империи Анатоль (греч. ανατολή, восток) и царства Дизит (греч. δύση, запад), разделённых яростным воздушным потоком — «Гранд Стримом», где властвует могущественная Гильдия, играющая роль судьи над обоими государствами.
В Анатоле, в городе Норикии, живут двое юных друзей — Клаус Барка и Лави Хэд, зарабатывающие на жизнь курьерской доставкой корреспонденции и лёгких грузов. Они вдвоём летают на ваншипе и с детства мечтают когда-нибудь пересечь «Гранд Стрим». Однажды, участвуя в гонках на Кубок Норикии, они замечают сильно повреждённый ваншип с раненым пилотом и решают ему помочь. За ваншипом охотится звездообразный штурмовик Гильдии, и пилот просит Клауса доставить по назначению свой груз — маленькую девочку, которую зовут Альвис Гамильтон. Место назначения — развалины старого храма, где девочку должен забрать Алекс Роу, капитан корабля-убийцы «Сильвана», имеющий давние счёты с Гильдией…



Качество: BDRemux
Тип релиза: Без хардсаба
Формат видео: MKV
Наличие линковки: Нет
Видео: AVC, [email protected], 8 bits, 1920x1080, 16:9, MBAFF, Interleaved fields, 29.970 fps, ~ 22.7 Mbps
Аудио: PCM, 2 ch (stereo), 1 536 Kbps, 48.0 KHz, 16 bits Язык Японский
Субтитры 1: MC Entertainment (ass) Язык Русский
Субтитры 2: перевод, тайминг и скрипты: CaH4e3, проверка и редактирование: Laex и Sectoid (srt) Язык Русский
General
Unique ID : 194846292252392622576690063286409957301 (0x929607E7C34C6145A4C3B01294C10FB5)
Complete name : /Volumes/My_torrents/Last Exile_[TV-1]_[26 of 26]_[2003_BDRemux]_[1080i]/1. First move.mkv
Format : Matroska
Format version : Version 4 / Version 2
File size : 3.88 GiB
Duration : 24mn 27s
Overall bit rate mode : Variable
Overall bit rate : 22.7 Mbps
Encoded date : UTC 2016-03-15 19:22:28
Writing application : mkvmerge v8.9.0 ('Father Daughter') 64bit
Writing library : libebml v1.3.3 + libmatroska v1.4.4
Video
ID : 1
Format : AVC
Format/Info : Advanced Video Codec
Format profile : [email protected]
Format settings, CABAC : Yes
Format settings, ReFrames : 2 frames
Format settings, GOP : M=3, N=30
Codec ID : V_MPEG4/ISO/AVC
Duration : 24mn 22s
Bit rate mode : Variable
Bit rate : 21.2 Mbps
Maximum bit rate : 36.0 Mbps
Width : 1 920 pixels
Height : 1 080 pixels
Display aspect ratio : 16:9
Frame rate mode : Constant
Frame rate : 29.970 (30000/1001) fps
Color space : YUV
Chroma subsampling : 4:2:0
Bit depth : 8 bits
Scan type : MBAFF
Scan type, store method : Interleaved fields
Scan order : Top Field First
Bits/(Pixel*Frame) : 0.341
Stream size : 3.61 GiB (93%)
Language : Japanese
Default : Yes
Forced : No
Color range : Limited
Color primaries : BT.709
Transfer characteristics : BT.709
Matrix coefficients : BT.709
Audio
ID : 2
Format : PCM
Format settings, Endianness : Big
Codec ID : A_PCM/INT/BIG
Duration : 24mn 27s
Bit rate mode : Constant
Bit rate : 1 536 Kbps
Channel(s) : 2 channels
Sampling rate : 48.0 KHz
Frame rate : 200.000 fps (240 spf)
Bit depth : 16 bits
Stream size : 269 MiB (7%)
Title : PCM 2.0 (48/16)
Language : Japanese
Default : Yes
Forced : No
Код: Выделить всё
Episode titles:
2003-04-07
 1. First Move
ファースト・ムーヴ
Faasuto Mūvu

2003-04-14
 2. Luft Vanship
ルフト・ヴァンシップ
Rufuto Vanshippu

2003-04-21
 3. Transpose
トランスポーズ
Toransu Poozu

2003-04-28
 4. Zugzwang
ツーク・ツワング
Tsūku Tsuwangu

2003-05-05
 5. Positional Play
ポジショナル・プレイ
Pojishonaru Purei

2003-05-12
 6. Arbiter Attack
アービター・アタック
Aabitaa Atakku

2003-05-19
 7. Interesting Claus
インタレスティング・クラウス
Intaresutingu Kurausu

2003-05-26
 8. Takeback
テークバック
Teekubakku

2003-06-02
 9. Calculate Alex
カリキュレイト・アレックス
Karikyureito Arekkusu

2003-06-09
 10. Swindle
スウィンドル

2003-06-16
 11. Develop
ディベロップ
Diberoppu

2003-06-23
 12. Discovered Attack
ディスカバード・アタック
Disukabaado Atakku

2003-06-30
 13. Isolated Pawn
アイソレイテッド・ポーン
Aisoreiteddo Poon

2003-07-07
 14. Etude Lavie
エテュード・ラヴィ

2003-07-14
 15. Fairy Chess
フェアリー・チェス
Fearii Chesu

2003-07-21
 16. Breakthrough
ブレーク・スルー
Bureeku Surū

2003-07-28
 17. Making Material
メイキング・マテリアル
Meikingu Materiaru

2003-08-04
 18. Promotion Sophia
プロモーション・ソフィア
Puromooshon Sofia

2003-08-11
 19. Sicilian Defence
シシリアン・ディフェンス
Shishirian Difensu

2003-08-18
 20. Grand Stream
グランドストリーム
Gurando Sutoriimu

2003-08-25
 21. Rook Dio
ルーク・ディーオ
Rūku Diio

2003-09-01
 22. Queen Delphine
クイーン・デルフィーネ
Kuiin Derufiine

2003-09-08
 23. Castling Lucciola
キャスリング・ルシオラ
Kyasuringu Rushiora

2003-09-15
 24. Sealed Move
シールド・ムーブ
Shiirudo Mūbu

2003-09-22
 25. Quiet Move
クワイエット・ムーブ
Kuwaietto Mūbu

2003-09-29
 26. Resign
リザイン
Riza In
CM Collection
Pilot Film
Textless Ending
Textless Opening (Ver. 01)
Textless Opening (Ver. 02)
На Mac OS деинтерлейсинг хорошо работает на VLC, но он неправильно снимает скриншоты, а тут вот то, что делает MPlayer OS X Extended....

   
Торрент: Зарегистрирован [17 мар 2016, 22:55] За каждые 2 ГБ. аплоада (сидирования) этого торрента начисляется бонус: 0.001 Золотая раздача - Скачанное не учитывается на 100% Скачать торрент
Скачать торрент
[ Размер 238.94 КБ / Просмотров 77 ]

Статус:
 
Приватный: Нет (DHT включён)
Размер: 92.98 ГБ (99 832 829 376 байт)
   
Аватара пользователя

Супермодератор
Супермодератор
 
Раздал: 24.34 ТБ
Скачал: 1.72 ТБ
Ратио: 20.884
Сообщения: 7936
Фото: 127
Зарегистрирован: 26 ноя 2012, 17:20
Medals: 2
1000 раздач! (1) Меценат №2 (1)

  • Похожие торренты
    Ответы
    Просмотры
    Последнее сообщение

Вернуться в HD и BDrip

Кто сейчас на конференции

Зарегистрированные пользователи: нет зарегистрированных пользователей

Ресурс не предоставляет электронные версии произведений, а занимается лишь коллекционированием и каталогизацией ссылок, присылаемых и публикуемых на форуме нашими читателями. Если вы являетесь правообладателем какого-либо представленного материала и не желаете чтобы ссылка на него находилась в нашем каталоге, свяжитесь с нами и мы незамедлительно удалим её. Файлы для обмена на трекере предоставлены пользователями сайта, и администрация не несёт ответственности за их содержание. Просьба не заливать файлы, защищенные авторскими правами, а также файлы нелегального содержания!
cron