Школа-тюрьма / Prison School / Kangoku Gakuen (Мидзусима Цутому) [TV] [12 из 12] [без хардсаба] [JAP+SUB] [2015 г., комедия, этти, HDTVRip] [720p] скачать торрент

Модератор: Модераторы аниме

  • Статистика раздачи
Размер: 3.92 ГБ   |  Зарегистрирован: 19 ноя 2015, 18:08   |   .torrent скачан: 0 раз
Сидеров: 0  [ 0 байт/сек ]     Личеров: 0  [ 0 байт/сек ]  
Список файлов : Кто скачал : Раздают : Скачивают : Кто благодарил : История : Не раздающие : Запрашивали сидеров : Внешние трекеры 
  

Школа-тюрьма / Prison School / Kangoku Gakuen (Мидзусима Цутому) [TV] [12 из 12] [без хардсаба] [JAP+SUB] [2015 г., комедия, этти, HDTVRip] [720p]

Сообщение Фаромир брат » 19 ноя 2015, 18:08

Школа-тюрьма | Prison School | Kangoku Gakuen


Год выпуска: 2015
Страна: Япония
Жанр: Комедия, этти.

Режиссёр: Мидзусима Цутому.
Студия: J.C. Staff (подробнее...)


Перевод:
Русские субтитры: [Shift]Перевод: General TAB[*]Редактора: Evafan Satin
Описание: Хачимицу — элитная частная академия, известная своими строгими академическими стандартами. Впервые, за всю историю существования школы, двери открываются и для учеников мужского пола.
Киёши Фуджино — главный герой истории, один из немногих «счастливчиков» Хачимицу. В первый же день он узнает шокирующую для него новость: в академию поступило только пять парней, включая его самого. И это при том, что девушек здесь около тысячи!
Казалось бы, жизнь парней академии будет «в малине», ведь они изо дня в день будут находиться в окружении девушек. Однако девушки наотрез отказываются разговаривать с ними. Вскоре выясняется, что причина такого поведения связанна с неким подпольным студенческим советом... Сумеют ли парни разоблачить тайный студсовет, угрожающий студенткам Хачимицу? © Bloodedge, World Art.

Качество: HDTVRip | Формат: MP4 | Тип видео: без хардсаба | Продолжительность: ТВ, 12 эп. по 24 мин. | Видео: [Ohys]
Видео кодек: H.264
Аудио кодек: AAC
Видео: H.264; 1280x720; ~1800Kbps, 23.976fps; (8 bit)
Аудио: JAP, AAC; 48000Hz; ~202Kbps (2ch);

01.The Peep Job.
02.The Man Who Viewed Too Much.
03.A Mighty Spurt.
04.Take Me Out to the Sumoland.
05.The School`s Number One Most Treacherous Man.
06.Vengeance Is Hana`s.
07.Meiko`s Delicious Restaurant.
08.The Diary of Andre.
09.Full of Bodily Fluids.
10.It`s a Bum-derful Life.
11.Eryngii Brockovich.
12.Good Morning, Prison!

Общее
Полное имя : C:\Users\Downloads\Prison School\Prison School - 01.mp4
Формат : MPEG-4
Профиль формата : Base Media
Идентификатор кодека : isom
Размер файла : 359 Мбайт
Продолжительность : 25 м.
Режим общего битрейта : Переменный
Общий поток : 2006 Кбит/сек
Дата кодирования : UTC 2015-07-10 16:55:59
Дата пометки : UTC 2015-07-10 16:55:59

Видео
Идентификатор : 1
Формат : AVC
Формат/Информация : Advanced Video Codec
Профиль формата : [email protected]
Параметр CABAC формата : Да
Параметр ReFrames формата : 4 кадра
Идентификатор кодека : avc1
Идентификатор кодека/Информация : Advanced Video Coding
Продолжительность : 24 м.
Битрейт : 1800 Кбит/сек
Максимальный битрейт : 13,0 Мбит/сек
Ширина : 1280 пикселей
Высота : 720 пикселей
Соотношение сторон : 16:9
Режим частоты кадров : Постоянный
Частота кадров : 23,976 кадра/сек
Цветовое пространство : YUV
Субдискретизация насыщенности : 4:2:0
Битовая глубина : 8 бит
Тип развёртки : Прогрессивная
Бит/(Пиксели*Кадры) : 0.081
Размер потока : 322 Мбайт (90%)
Библиотека кодирования : x264 core 146 r2538 121396c
Настройки программы : cabac=1 / ref=3 / deblock=1:0:0 / analyse=0x1:0x111 / me=hex / subme=7 / psy=1 / psy_rd=1.00:0.00 / mixed_ref=1 / me_range=16 / chroma_me=1 / trellis=1 / 8x8dct=0 / cqm=0 / deadzone=21,11 / fast_pskip=1 / chroma_qp_offset=-2 / threads=12 / lookahead_threads=2 / sliced_threads=0 / nr=0 / decimate=1 / interlaced=0 / bluray_compat=0 / constrained_intra=0 / bframes=3 / b_pyramid=2 / b_adapt=1 / b_bias=0 / direct=1 / weightb=1 / open_gop=0 / weightp=2 / keyint=240 / keyint_min=1 / scenecut=40 / intra_refresh=0 / rc_lookahead=40 / rc=crf / mbtree=1 / crf=20.0 / qcomp=0.60 / qpmin=0 / qpmax=69 / qpstep=4 / ip_ratio=1.40 / aq=1:1.50
Дата кодирования : UTC 2015-07-10 16:55:59
Дата пометки : UTC 2015-07-10 16:56:01
Цветовой диапазон : Limited
Основные цвета : BT.709
Характеристики трансфера : BT.709
Коэффициенты матрицы : BT.709

Аудио
Идентификатор : 2
Формат : AAC
Формат/Информация : Advanced Audio Codec
Профиль формата : LC
Идентификатор кодека : 40
Продолжительность : 25 м.
Вид битрейта : Переменный
Битрейт : 202 Кбит/сек
Максимальный битрейт : 249 Кбит/сек
Каналы : 2 канала
Расположение каналов : Front: L R
Частота : 48,0 КГц
Метод сжатия : С потерями
Размер потока : 36,1 Мбайт (10%)
Язык : Japanese
Дата кодирования : UTC 2015-07-10 16:44:36
Дата пометки : UTC 2015-07-10 16:56:01

Внимание! Это обновляемая раздача. Серии добавляются по мере выхода русских субтитров.

Торрент обновлён. Добавлена последняя серия.[27.09.2015]
   
Торрент: Зарегистрирован [19 ноя 2015, 18:08] Скачать торрент
Скачать торрент
[ Размер 40.91 КБ / Просмотров 105 ]

Статус:
 
Приватный: Нет (DHT включён)
Размер: 3.92 ГБ (4 213 803 771 байт)
   
Аватара пользователя

Супермодератор
Супермодератор
 
Раздал: 24.34 ТБ
Скачал: 1.72 ТБ
Ратио: 20.884
Сообщения: 7936
Фото: 127
Зарегистрирован: 26 ноя 2012, 17:20
Medals: 2
1000 раздач! (1) Меценат №2 (1)

Вернуться в HD и BDrip

Кто сейчас на конференции

Зарегистрированные пользователи: нет зарегистрированных пользователей

cron
Ресурс не предоставляет электронные версии произведений, а занимается лишь коллекционированием и каталогизацией ссылок, присылаемых и публикуемых на форуме нашими читателями. Если вы являетесь правообладателем какого-либо представленного материала и не желаете чтобы ссылка на него находилась в нашем каталоге, свяжитесь с нами и мы незамедлительно удалим её. Файлы для обмена на трекере предоставлены пользователями сайта, и администрация не несёт ответственности за их содержание. Просьба не заливать файлы, защищенные авторскими правами, а также файлы нелегального содержания!
cron