Я стал образцом простолюдина в школе благородных девиц / Ore ga Ojou-sama Gakkou ni "Shomin Sample" Toshite Gets-sareta Ken (Дзимбо Масато) [TV] [12 из 12] [Без хардсаба] [JAP+SUB] [2015 г., комедия, этти, романтика, HDTVRip] [720p] скачать торрент

Модератор: Модераторы аниме

  • Статистика раздачи
Размер: 4 ГБ   |  Зарегистрирован: 17 мар 2016, 22:27   |   .torrent скачан: 0 раз
Сидеров: 0  [ 0 байт/сек ]     Личеров: 0  [ 0 байт/сек ]  
Список файлов : Кто скачал : Раздают : Скачивают : Кто благодарил : История : Не раздающие : Запрашивали сидеров : Внешние трекеры 
  

Я стал образцом простолюдина в школе благородных девиц / Ore ga Ojou-sama Gakkou ni "Shomin Sample" Toshite Gets-sareta Ken (Дзимбо Масато) [TV] [12 из 12] [Без хардсаба] [JAP+SUB] [2015 г., комедия, этти, романтика, HDTVRip] [720p]

Сообщение Фаромир брат » 17 ноя 2015, 17:25

Я стал образцом простолюдина в школе благородных девиц / Ore ga Ojou-sama Gakkou ni "Shomin Sample" Toshite Gets-sareta Ken

Страна: Япония
Год выпуска: 2015 г.
Жанр: Комедия, этти, романтика
Тип: TV
Продолжительность: 12 эп. по 24 мин.
Режиссер: Дзимбо Масато
Студия: Silver Link

Перевод:
русские субтитры от GerKo
(Перевод: Gerale; Редакция: Komugi-chan)

русские субтитры от T_T subs
(Перевод/Оформление: alkopone; Редакция/Оформление: Rhododendron)

Описание: Казалось бы, в современном мире, где глобализация победно шествует по планете, технологии продолжают стремительное развитие, а самые обычные люди всё чаще путешествуют по миру, места для пережитков прошлого попросту не осталось. Кимито Кагуразака на собственном печальном опыте убедился, что в действительности так только кажется. Волею судьбы он очутился в настоящем рассаднике старомодных ценностей и социальной отсталости – в изолированной школе для благородных девиц, которые ни с мальчиками, ни с мобильными телефонами, ни с правилами общения между «простыми смертными» толком не знакомы.

Впрочем, девицам стоит отдать должное: внешний мир пробуждает у них глубочайший интерес, и до выхода в свет они очень хотят побольше узнать о жизни «простолюдинов». Именно в роли штатного простолюдина, способного ответить на все интересующие их вопросы, Кимито и был принят в школу – точнее, похищен и привезён силой, но кого же, кроме него самого, волнуют такие мелочи? А самое неприятное во всём этом то, что Кимито даже приударить за этими красотками не может: его похитили под ложным впечатлением, будто он интересуется мальчиками и никакой опасности для юных дев не представляет. И если Кимито не хочет новых бед на свою несчастную голову, ему придётся соответствовать этому имиджу и быть паинькой.

Качество: HDTVRip
Тип релиза: Без хардсаба
Формат видео: MP4
Наличие линковки: Нет
Релиз/Автор рипа: Leopard-Raws
Видео: x264 (8 bit), 1280x720, ~1900 Kbps, 23.976 fps
Аудио JAP: AAC, 48000 Hz, ~192 Kbps, 2 ch
Субтитры RUS 1: ASS, внешние
Субтитры RUS 2: ASS, внешние
Код: Выделить всё
General
Complete name                            : C:\Documents and Settings\Администратор\Мои документы\Downloads\Shomin Sample\[Leopard-Raws] Ore ga Ojou-sama Gakkou ni [Shomin Sample] Toshite Gets-sareta Ken - 01 RAW (ATX 1280x720 x264 AAC).mp4
Format                                   : MPEG-4
Format profile                           : Base Media
Codec ID                                 : isom
File size                                : 352 MiB
Duration                                 : 24mn 0s
Overall bit rate mode                    : Variable
Overall bit rate                         : 2 049 Kbps
Encoded date                             : UTC 2015-10-07 19:48:42
Tagged date                              : UTC 2015-10-07 19:48:42

Video
ID                                       : 1
Format                                   : AVC
Format/Info                              : Advanced Video Codec
Format profile                           : [email protected]
Format settings, CABAC                   : Yes
Format settings, ReFrames                : 4 frames
Codec ID                                 : avc1
Codec ID/Info                            : Advanced Video Coding
Duration                                 : 24mn 0s
Bit rate                                 : 1 853 Kbps
Maximum bit rate                         : 8 934 Kbps
Width                                    : 1 280 pixels
Height                                   : 720 pixels
Display aspect ratio                     : 16:9
Frame rate mode                          : Constant
Frame rate                               : 23.976 fps
Color space                              : YUV
Chroma subsampling                       : 4:2:0
Bit depth                                : 8 bits
Scan type                                : Progressive
Bits/(Pixel*Frame)                       : 0.084
Stream size                              : 318 MiB (90%)
Title                                    : 264:[email protected]
Writing library                          : x264 core 129 r2245+729M 1a52e03
Encoding settings                        : cabac=1 / ref=4 / deblock=1:1:-1 / analyse=0x3:0x113 / me=umh / subme=9 / psy=1 / fade_compensate=0.00 / psy_rd=1.00:0.00 / mixed_ref=1 / me_range=24 / chroma_me=1 / trellis=2 / 8x8dct=1 / cqm=0 / deadzone=21,11 / fast_pskip=1 / chroma_qp_offset=-2 / threads=8 / lookahead_threads=1 / sliced_threads=0 / nr=0 / decimate=1 / interlaced=0 / bluray_compat=0 / constrained_intra=0 / fgo=0 / bframes=9 / b_pyramid=2 / b_adapt=2 / b_bias=0 / direct=1 / weightb=1 / open_gop=0 / weightp=2 / keyint=240 / keyint_min=24 / scenecut=40 / intra_refresh=0 / rc=crf / mbtree=0 / crf=18.5 / qcomp=0.72 / qpmin=0 / qpmax=69 / qpstep=4 / ip_ratio=1.40 / pb_ratio=1.30 / aq=1:0.85
Encoded date                             : UTC 2015-10-07 19:48:42
Tagged date                              : UTC 2015-10-07 19:48:45
Color primaries                          : BT.709
Transfer characteristics                 : BT.709
Matrix coefficients                      : BT.709

Audio
ID                                       : 2
Format                                   : AAC
Format/Info                              : Advanced Audio Codec
Format profile                           : LC
Codec ID                                 : 40
Duration                                 : 24mn 0s
Bit rate mode                            : Variable
Bit rate                                 : 192 Kbps
Maximum bit rate                         : 229 Kbps
Channel count                            : 2 channels
Channel positions                        : Front: L R
Sampling rate                            : 48.0 KHz
Compression mode                         : Lossy
Stream size                              : 33.0 MiB (9%)
Language                                 : Japanese
Encoded date                             : UTC 2015-10-07 17:21:59
Tagged date                              : UTC 2015-10-07 19:48:45
01. Welcome, Commoner
02. Reiko Is Who We Wish to Be Like
03. It Was Like the Garden of Eden
04. The Tea Party Incident
05. Just Friends
06. Step Outside
   
Торрент: Зарегистрирован [17 мар 2016, 22:27] Скачать торрент
Скачать торрент
[ Размер 16.47 КБ / Просмотров 117 ]

Статус:
 
Приватный: Нет (DHT включён)
Размер: 4 ГБ (4 298 581 377 байт)
   
Аватара пользователя

Супермодератор
Супермодератор
 
Раздал: 24.34 ТБ
Скачал: 1.72 ТБ
Ратио: 20.884
Сообщения: 7936
Фото: 127
Зарегистрирован: 26 ноя 2012, 17:20
Medals: 2
1000 раздач! (1) Меценат №2 (1)

Вернуться в HD и BDrip

Кто сейчас на конференции

Зарегистрированные пользователи: нет зарегистрированных пользователей

cron
Ресурс не предоставляет электронные версии произведений, а занимается лишь коллекционированием и каталогизацией ссылок, присылаемых и публикуемых на форуме нашими читателями. Если вы являетесь правообладателем какого-либо представленного материала и не желаете чтобы ссылка на него находилась в нашем каталоге, свяжитесь с нами и мы незамедлительно удалим её. Файлы для обмена на трекере предоставлены пользователями сайта, и администрация не несёт ответственности за их содержание. Просьба не заливать файлы, защищенные авторскими правами, а также файлы нелегального содержания!
cron