Граффити счастливой кухни / Koufuku Graffiti (Симбо Акиюки) [TV] [12 из 12] [без хардсаба] [RUS(ext), JAP+SUB] [2015 г., повседневность, комедия, BDRip] [720p] скачать торрент

Модератор: Модераторы аниме

  • Статистика раздачи
Размер: 7.78 ГБ   |  Зарегистрирован: 17 ноя 2015, 17:21   |   .torrent скачан: 0 раз
Сидеров: 0  [ 0 байт/сек ]     Личеров: 0  [ 0 байт/сек ]  
Список файлов : Кто скачал : Раздают : Скачивают : Кто благодарил : История : Не раздающие : Запрашивали сидеров : Внешние трекеры 
  

Граффити счастливой кухни / Koufuku Graffiti (Симбо Акиюки) [TV] [12 из 12] [без хардсаба] [RUS(ext), JAP+SUB] [2015 г., повседневность, комедия, BDRip] [720p]

Сообщение Фаромир брат » 17 ноя 2015, 17:21


Год выпуска: 2015
Страна: Япония
Жанр: повседневность, Комедия
Продолжительность: ТВ, 12 эп. по 24 мин.
Выпуск: c 09.01.2015 по 27.03.2015
Перевод:
[*]русские субтитры от Усатый Ня (полные/вспомогательные)
Режиссер: Симбо Акиюки
Студия: SHAFT
Описание:
14-летняя Рё Матико – милая и спокойная девушка, настоящая хозяюшка и мастерица кухни. Но вот беда – родители работают за рубежом, любимая бабушка умерла год назад, приходится жить одной, точнее, под присмотром вечно занятой тети. Тут Рё и начало казаться, что бабушкины уроки прошли впустую, кулинарный талант куда-то делся, и даже коронные блюда в ее исполнении становятся обыденными и безвкусными. А ведь ответ прост – настоящий талант расцветает лишь тогда, когда знаешь, для кого готовить!

Такую истину нельзя понять самой – нужен близкий человек. Для Матико ею стала кузина Кирин, начавшая каждую субботу ездить в Токио на подготовительные курсы, а у кого же остановиться, как не у родни? Кирин, конечно, милая, и гурманка еще та, только больно резкая и вспыльчивая, особенно по отношению к Сиине, единственной подруге Рё. Но Сиина настолько загадочная, что злить ее бесполезно – проще сесть и вместе покушать. Так девушки постепенно поняли, что кулинария – не только высокое искусство, но и древнейший язык, сближающий людей. А еще – путь к решению проблем через желудок работает не только у мужчин!
© Hollow, World Art

В данном аниме прослеживаются явные параллели с франшизой Hidamari – обе поставлены по манге-ёнкоме, героини поступают в школу искусств, обожают готовить и ценят вкусную еду, действие камерное и развивается в узком кругу, мужские персонажи смысловой нагрузки не несут, наконец, обе истории ставил режиссер Симбо Акиюки.
Информационные ссылки: AniDB || World Art || MAL
Качество: BDRip
Энкод: Winter - RG Pantheon
Тип видео: без хардсаба, без линковки
Формат: mkv
Видео: x264 (Hi10p), 1280x720, ~2900 Kbps, 23.976 fps
Аудио JAP: Vorbis, 48000Hz, ~256 Kbps, 2ch
Аудио RUS 1-3: AC3, 48000Hz, ~192 Kbps, 2ch (внешними файлами)
[*]одноголосая (жен.) от Eladiel (Onibaku) [1-4]

[*]двухголосая (жен./муж.) от NASTR & Cuba77 (AniDub)

[*]трехголосая от MezIdA & Акварелька & Soer (Anifilm)
01. Warm, Juicy
02. Fluffy, Sizzling
03. Crispy, Dripping
04. Slowly, Crumbly
05. Slurp, Gulp
06. Hot, Springy
07. Sizzle, Pop
08. Piping Hot, Chomp
09. Bubbling, Huff-Puff...
10. Chewy, Melty
11. Chop-Chop, Slurp / Crunchy, Shining
12. Soaked Up, Squeeze


Общее
Уникальный идентификатор : 228540244372286101398917652244661541400 (0xABEF4000E11640CEB35582D1D6FC1A18)
Полное имя : A:\Anime\NEW\Koufuku Graffiti [BD] [720p]\[W] Koufuku Graffiti 01 [BDrip 1280x720 x264 Vorbis].mkv
Формат : Matroska
Версия формата : Version 2
Размер файла : 558 Мбайт
Продолжительность : 24 м.
Режим общего битрейта : Переменный
Общий поток : 3223 Кбит/сек
Дата кодирования : UTC 2015-10-04 15:55:43
Программа кодирования : mkvmerge v2.9.8 ('C'est le bon') built on Aug 13 2009 12:49:06
Библиотека кодирования : libebml v0.7.7 + libmatroska v0.8.1

Видео
Идентификатор : 1
Формат : AVC
Формат/Информация : Advanced Video Codec
Профиль формата : High [email protected]
Параметр CABAC формата : Да
Параметр ReFrames формата : 9 кадров
Идентификатор кодека : V_MPEG4/ISO/AVC
Продолжительность : 24 м.
Битрейт : 2902 Кбит/сек
Ширина : 1280 пикселей
Высота : 720 пикселей
Соотношение сторон : 16:9
Режим частоты кадров : Постоянный
Частота кадров : 23,976 кадра/сек
Цветовое пространство : YUV
Субдискретизация насыщенности : 4:2:0
Битовая глубина : 10 бит
Тип развёртки : Прогрессивная
Бит/(Пиксели*Кадры) : 0.131
Размер потока : 502 Мбайт (90%)
Библиотека кодирования : x264 core 132 r2309 3b1f1f7
Настройки программы : cabac=1 / ref=9 / deblock=1:-2:-2 / analyse=0x3:0x133 / me=umh / subme=9 / psy=1 / psy_rd=0.90:0.00 / mixed_ref=1 / me_range=24 / chroma_me=1 / trellis=2 / 8x8dct=1 / cqm=0 / deadzone=21,11 / fast_pskip=1 / chroma_qp_offset=-2 / threads=12 / lookahead_threads=2 / sliced_threads=0 / nr=0 / decimate=0 / interlaced=0 / bluray_compat=0 / constrained_intra=0 / bframes=8 / b_pyramid=2 / b_adapt=2 / b_bias=0 / direct=1 / weightb=1 / open_gop=0 / weightp=2 / keyint=250 / keyint_min=23 / scenecut=40 / intra_refresh=0 / rc=crf / mbtree=0 / crf=15.7 / qcomp=0.70 / qpmin=9 / qpmax=40 / qpstep=4 / ip_ratio=1.40 / pb_ratio=1.30 / aq=1:0.90
Default : Нет
Forced : Нет

Аудио
Идентификатор : 2
Формат : Vorbis
Параметр Floor формата : 1
Идентификатор кодека : A_VORBIS
Продолжительность : 24 м.
Вид битрейта : Переменный
Битрейт : 256 Кбит/сек
Каналы : 2 канала
Частота : 48,0 КГц
Метод сжатия : С потерями
Размер потока : 44,3 Мбайт (8%)
Библиотека кодирования : libVorbis (Schaufenugget) (20101101 (Schaufenugget))
Язык : Japanese
Default : Да
Forced : Нет

   
Торрент: Зарегистрирован [17 ноя 2015, 17:21] За каждые 2 ГБ. аплоада (сидирования) этого торрента начисляется бонус: 0.001 Скачать торрент
Скачать торрент
[ Размер 46.31 КБ / Просмотров 107 ]

Статус:
 
Приватный: Нет (DHT включён)
Размер: 7.78 ГБ (8 353 114 256 байт)
   
Аватара пользователя

Супермодератор
Супермодератор
 
Раздал: 24.34 ТБ
Скачал: 1.72 ТБ
Ратио: 20.884
Сообщения: 7936
Фото: 127
Зарегистрирован: 26 ноя 2012, 17:20
Medals: 2
1000 раздач! (1) Меценат №2 (1)

Вернуться в HD и BDrip

Кто сейчас на конференции

Зарегистрированные пользователи: нет зарегистрированных пользователей

cron
Ресурс не предоставляет электронные версии произведений, а занимается лишь коллекционированием и каталогизацией ссылок, присылаемых и публикуемых на форуме нашими читателями. Если вы являетесь правообладателем какого-либо представленного материала и не желаете чтобы ссылка на него находилась в нашем каталоге, свяжитесь с нами и мы незамедлительно удалим её. Файлы для обмена на трекере предоставлены пользователями сайта, и администрация не несёт ответственности за их содержание. Просьба не заливать файлы, защищенные авторскими правами, а также файлы нелегального содержания!
cron