Бандидос. / Gangsta. [TV] [1 из >12] [без хардсаба] [JAP+SUB] [2015 г., боевик, комедия, романтика, сэйнэн, HDTVRip] [720p] скачать торрент

Модератор: Модераторы аниме

  • Статистика раздачи
Размер: 323.33 МБ   |  Зарегистрирован: 02 июл 2015, 19:19   |   .torrent скачан: 0 раз
Сидеров: 0  [ 0 байт/сек ]     Личеров: 0  [ 0 байт/сек ]  
Список файлов : Кто скачал : Раздают : Скачивают : Кто благодарил : История : Не раздающие : Запрашивали сидеров : Внешние трекеры 
  

Бандидос. / Gangsta. [TV] [1 из >12] [без хардсаба] [JAP+SUB] [2015 г., боевик, комедия, романтика, сэйнэн, HDTVRip] [720p]

Сообщение Фаромир брат » 02 июл 2015, 19:19

Бандидос. / Gangsta.
Страна: Япония
Год выпуска: 2015 г.
Жанр: боевик, Комедия, романтика, сэйнэн
Тип: TV
Продолжительность: >12 эп. по 25 мин
Режиссер: Мурасэ Сюко
Студия: Manglobe Inc.
Описание: У вас течет кран? Отломалась ножка стула? Завелись тараканы? В предприимчивой Японии в таких случаях звонят в специальную контору, "мастерам на все руки", которые все починят, со всем помогут, все проблемы решат. Называются такие мастера абстрактным словом "Бенрия-сан". Вот только где-то есть районы, где "бытовые" проблемы имеют широкий криминальный масштаб, а вредители крупные и злобные двуногие, от которых "дрожат" даже иные тюрьмы. Вот на таких улицах и переулках вырастают свои "Бенрия-сан", которые так же без вопросов приведут любой объект хозяствования в состояние "нет проблем". У вас все еще проблемы? Не раздумывая звоните Варрику и Николасу: приятная секретарша всегда ответит на звонок - и специалист немедленно отправится вам на помощь, прихватив кольт, катану и прочий рабочий инструмент.
Качество: HDTVRip
Тип релиза: Без хардсаба
Формат видео: mp4
Релиз/Автор рипа: Ohys-Raws
Видео: H264, 1671 Kbps, 1280x720, 23.976 fps, 8 bit
Аудио: JAP, AAC, 209 kbps, 48000 Hz, 2ch

Субтитры: ASS, внешние; Язык субтитров русский;
L Перевод: Animevost Перепечатывал по звуку: Bananasichik
Код: Выделить всё
General
Complete name                  : D:\Torrent\[Ohys-Raws] Gangsta\[Ohys-Raws] Gangsta. - 01 (ABC 1280x720 x264 AAC).mp4
Format                         : MPEG-4
Format profile                 : Base Media
Codec ID                       : isom
File size                      : 323 MiB
Duration                       : 23mn 59s
Overall bit rate mode          : Variable
Overall bit rate               : 1 884 Kbps
Encoded date                   : UTC 2015-07-01 19:21:24
Tagged date                    : UTC 2015-07-01 19:21:24

Video
ID                             : 1
Format                         : AVC
Format/Info                    : Advanced Video Codec
Format profile                 : [email protected]
Format settings, CABAC         : Yes
Format settings, ReFrames      : 4 frames
Codec ID                       : avc1
Codec ID/Info                  : Advanced Video Coding
Duration                       : 23mn 59s
Bit rate                       : 1 671 Kbps
Maximum bit rate               : 13.3 Mbps
Width                          : 1 280 pixels
Height                         : 720 pixels
Display aspect ratio           : 16:9
Frame rate mode                : Constant
Frame rate                     : 23.976 fps
Color space                    : YUV
Chroma subsampling             : 4:2:0
Bit depth                      : 8 bits
Scan type                      : Progressive
Bits/(Pixel*Frame)             : 0.076
Stream size                    : 287 MiB (89%)
Writing library                : x264 core 146 r2538 121396c
Encoding settings              : cabac=1 / ref=3 / deblock=1:0:0 / analyse=0x1:0x111 / me=hex / subme=7 / psy=1 / psy_rd=1.00:0.00 / mixed_ref=1 / me_range=16 / chroma_me=1 / trellis=1 / 8x8dct=0 / cqm=0 / deadzone=21,11 / fast_pskip=1 / chroma_qp_offset=-2 / threads=12 / lookahead_threads=2 / sliced_threads=0 / nr=0 / decimate=1 / interlaced=0 / bluray_compat=0 / constrained_intra=0 / bframes=3 / b_pyramid=2 / b_adapt=1 / b_bias=0 / direct=1 / weightb=1 / open_gop=0 / weightp=2 / keyint=240 / keyint_min=1 / scenecut=40 / intra_refresh=0 / rc_lookahead=40 / rc=crf / mbtree=1 / crf=20.0 / qcomp=0.60 / qpmin=0 / qpmax=69 / qpstep=4 / ip_ratio=1.40 / aq=1:1.50
Encoded date                   : UTC 2015-07-01 19:21:24
Tagged date                    : UTC 2015-07-01 19:21:26
Color range                    : Limited
Color primaries                : BT.709
Transfer characteristics       : BT.709
Matrix coefficients            : BT.709

Audio
ID                             : 2
Format                         : AAC
Format/Info                    : Advanced Audio Codec
Format profile                 : LC
Codec ID                       : 40
Duration                       : 23mn 59s
Bit rate mode                  : Variable
Bit rate                       : 209 Kbps
Maximum bit rate               : 251 Kbps
Channel(s)                     : 2 channels
Channel positions              : Front: L R
Sampling rate                  : 48.0 KHz
Compression mode               : Lossy
Stream size                    : 35.9 MiB (11%)
Language                       : Japanese
Encoded date                   : UTC 2015-07-01 19:10:29
Tagged date                    : UTC 2015-07-01 19:21:26
01 - NAUGHTY BOYS
   
Торрент: Зарегистрирован [02 июл 2015, 19:19] Скачать торрент
Скачать торрент
[ Размер 13.27 КБ / Просмотров 273 ]

Статус:
 
Приватный: Нет (DHT включён)
Размер: 323.33 МБ (339 031 816 байт)
   
Аватара пользователя

Супермодератор
Супермодератор
 
Раздал: 24.34 ТБ
Скачал: 1.72 ТБ
Ратио: 20.884
Сообщения: 7936
Фото: 127
Зарегистрирован: 26 ноя 2012, 17:20
Medals: 2
1000 раздач! (1) Меценат №2 (1)

Вернуться в HD и BDrip

Кто сейчас на конференции

Зарегистрированные пользователи: нет зарегистрированных пользователей

cron
Ресурс не предоставляет электронные версии произведений, а занимается лишь коллекционированием и каталогизацией ссылок, присылаемых и публикуемых на форуме нашими читателями. Если вы являетесь правообладателем какого-либо представленного материала и не желаете чтобы ссылка на него находилась в нашем каталоге, свяжитесь с нами и мы незамедлительно удалим её. Файлы для обмена на трекере предоставлены пользователями сайта, и администрация не несёт ответственности за их содержание. Просьба не заливать файлы, защищенные авторскими правами, а также файлы нелегального содержания!
cron