Флотская коллекция / Kantai Collection: KanColle (Кусакава Кэйдзё) [TV] [12 из 12] [Без хардсаба] [JAP+SUB] [2015 г., приключения, HDTVRip] [720p] скачать торрент

Модератор: Модераторы аниме

  • Статистика раздачи
Размер: 5.8 ГБ   |  Зарегистрирован: 15 май 2015, 17:21   |   .torrent скачан: 0 раз
Сидеров: 0  [ 0 байт/сек ]     Личеров: 0  [ 0 байт/сек ]  
Список файлов : Кто скачал : Раздают : Скачивают : Кто благодарил : История : Не раздающие : Запрашивали сидеров : Внешние трекеры 
  

Флотская коллекция / Kantai Collection: KanColle (Кусакава Кэйдзё) [TV] [12 из 12] [Без хардсаба] [JAP+SUB] [2015 г., приключения, HDTVRip] [720p]

Сообщение Фаромир брат » 15 май 2015, 17:21

Флотская коллекция / Kantai Collection: KanColle

Страна: Япония
Год выпуска: 2015 г.
Тип: TV
Жанр: Приключения
Продолжительность: 12 эп. по 25 мин
Русские субтитры: GMC & Timecraft
Переводчик: Elven_tankman
Редактор/Оформление: Koushin
Русские субтитры # 2: nnm-club^anime
Редактор/Тайм-код: ElSwanko
Переводчик/Оформление: kvaking

Режиссер: Кусакава Кэйдзё

Студия:

Описание: Действие разворачивается в будущем, когда человечество потеряло контроль над морями и океанами, а захватил их загадочный «Флот глубокого моря». Противостоять новой угрозе могут только «корабледевочки», счастливые обладательницы «духов военных судов ушедших времён». Действие сериала разворачивается на базе Чиндзюфу, где корабледевочки живут, работают, тренируются и противостоят «Флоту». Однажды на базу прибывает Фубуки, эсминец особого класса..

Качество: HDTVRip | Равка: Leopard-Raws Формат: mp4 | Тип Видео: без хардсаба
Видео кодек: AVC
Видео: AVC, 8 bits, 1280x720, 2847 kbps, 23.976 fps, (16:9)
Аудио:
1. JP - AAC, 192 kbps, 48.0 KHz, 2 ch
01. Здравствуйте, командир!
02. Не отступай, не стесняйся, не ленись!
03. Операция по захвату острова У
04. Теперь наш черёд! За мной!
05. Не сравнивай меня с девицами\Nиз Пятой Авианосной Группы!
06. Операция "Морское Карри"!
07. Ненавижу Первую Авианосную Группу!
08. Я не гостиница!
09. Вторая трансформация-пои
10. Выложимся на полную!
11. Операция МИ началась!
12. Вражеские бомбардировщики пикируют на нас
Общее
Полное имя : D:\[Leopard-Raws]\[Leopard-Raws] Kantai Collection - KanColle\[Leopard-Raws] Kantai Collection - KanColle - 01 RAW (MX 1280x720 x264 AAC).mp4
Формат : MPEG-4
Профиль формата : Base Media
Идентификатор кодека : isom
Размер файла : 544 Мбайт
Продолжительность : 24 м.
Режим общего битрейта : Переменный
Общий поток : 3043 Кбит/сек
Дата кодирования : UTC 2015-01-07 20:05:41
Дата пометки : UTC 2015-01-07 20:05:41

Видео
Идентификатор : 1
Формат : AVC
Формат/Информация : Advanced Video Codec
Профиль формата : Hi[email protected]
Параметр CABAC формата : Да
Параметр ReFrames формата : 4 кадра
Идентификатор кодека : avc1
Идентификатор кодека/Информация : Advanced Video Coding
Продолжительность : 24 м.
Битрейт : 2847 Кбит/сек
Максимальный битрейт : 14,6 Мбит/сек
Ширина : 1280 пикселей
Высота : 720 пикселей
Соотношение сторон : 16:9
Режим частоты кадров : Постоянный
Частота кадров : 23,976 кадра/сек
Цветовое пространство : YUV
Субдискретизация насыщенности : 4:2:0
Битовая глубина : 8 бит
Тип развёртки : Прогрессивная
Бит/(Пиксели*Кадры) : 0.129
Размер потока : 509 Мбайт (94%)
Заголовок : 264:[email protected]
Библиотека кодирования : x264 core 129 r2245+729M 1a52e03
Настройки программы : cabac=1 / ref=4 / deblock=1:1:-1 / analyse=0x3:0x113 / me=umh / subme=9 / psy=1 / fade_compensate=0.00 / psy_rd=1.00:0.00 / mixed_ref=1 / me_range=24 / chroma_me=1 / trellis=2 / 8x8dct=1 / cqm=0 / deadzone=21,11 / fast_pskip=1 / chroma_qp_offset=-2 / threads=8 / lookahead_threads=1 / sliced_threads=0 / nr=0 / decimate=1 / interlaced=0 / bluray_compat=0 / constrained_intra=0 / fgo=0 / bframes=9 / b_pyramid=2 / b_adapt=2 / b_bias=0 / direct=1 / weightb=1 / open_gop=0 / weightp=2 / keyint=240 / keyint_min=24 / scenecut=40 / intra_refresh=0 / rc=crf / mbtree=0 / crf=18.5 / qcomp=0.72 / qpmin=0 / qpmax=69 / qpstep=4 / ip_ratio=1.40 / pb_ratio=1.30 / aq=1:0.85
Дата кодирования : UTC 2015-01-07 20:05:41
Дата пометки : UTC 2015-01-07 20:05:47
Основные цвета : BT.709
Характеристики трансфера : BT.709
Коэффициенты матрицы : BT.709

Аудио
Идентификатор : 2
Формат : AAC
Формат/Информация : Advanced Audio Codec
Профиль формата : LC
Идентификатор кодека : 40
Продолжительность : 24 м.
Вид битрейта : Переменный
Битрейт : 192 Кбит/сек
Максимальный битрейт : 230 Кбит/сек
Каналы : 2 канала
Расположение каналов : Front: L R
Частота : 48,0 КГц
Метод сжатия : С потерями
Размер потока : 34,3 Мбайт (6%)
Язык : Japanese
Дата кодирования : UTC 2015-01-07 18:46:18
Дата пометки : UTC 2015-01-07 20:05:47
   
Торрент: Зарегистрирован [15 май 2015, 17:21] За каждые 2 ГБ. аплоада (сидирования) этого торрента начисляется бонус: 0.001 Бронзовая раздача - Скачанное не учитывается на 24% Скачать торрент
Скачать торрент
[ Размер 19.19 КБ / Просмотров 71 ]

Статус:
 
Приватный: Нет (DHT включён)
Размер: 5.8 ГБ (6 228 524 218 байт)
   
Аватара пользователя

Супермодератор
Супермодератор
 
Раздал: 24.34 ТБ
Скачал: 1.72 ТБ
Ратио: 20.884
Сообщения: 7936
Фото: 127
Зарегистрирован: 26 ноя 2012, 17:20
Medals: 2
1000 раздач! (1) Меценат №2 (1)

Вернуться в HD и BDrip

Кто сейчас на конференции

Зарегистрированные пользователи: нет зарегистрированных пользователей

Ресурс не предоставляет электронные версии произведений, а занимается лишь коллекционированием и каталогизацией ссылок, присылаемых и публикуемых на форуме нашими читателями. Если вы являетесь правообладателем какого-либо представленного материала и не желаете чтобы ссылка на него находилась в нашем каталоге, свяжитесь с нами и мы незамедлительно удалим её. Файлы для обмена на трекере предоставлены пользователями сайта, и администрация не несёт ответственности за их содержание. Просьба не заливать файлы, защищенные авторскими правами, а также файлы нелегального содержания!
cron