Святая семёрка / Trinity Seven (Нисикиори Хироси) [TV] [12 из 12] [Без хардсаба] [JAP+SUB] [2014 г., приключения, комедия, фэнтези, этти, BDRemux] [1080p] скачать торрент

Модератор: Модераторы аниме

  • Статистика раздачи
Размер: 82.97 ГБ   |  Зарегистрирован: 29 июн 2015, 22:36   |   .torrent скачан: 0 раз
Сидеров: 0  [ 0 байт/сек ]     Личеров: 0  [ 0 байт/сек ]  
Список файлов : Кто скачал : Раздают : Скачивают : Кто благодарил : История : Не раздающие : Запрашивали сидеров : Внешние трекеры 
  

Святая семёрка / Trinity Seven (Нисикиори Хироси) [TV] [12 из 12] [Без хардсаба] [JAP+SUB] [2014 г., приключения, комедия, фэнтези, этти, BDRemux] [1080p]

Сообщение Фаромир брат » 25 апр 2015, 21:11


Страна: Япония
Год выпуска: 2014
Жанр: приключения, Комедия, фэнтези, этти
Продолжительность: ТВ (12 эп.), по 25 мин.
Режиссер: Нисикиори Хироси
Студия
:
Перевод:русские субтитры от GMC & Timecraft (полные) | .ass, внешние
редакторы: Koushin, Nerevar; переводчик: Elven_tankman, оформление: Surokune

Описание: Что нужно настоящему японскому школьнику? Хорошая физическая форма, богатое воображение, моральная стойкость и, конечно, решительность! Арата Касуга, узнав, что неведомые магические силы грубо вмешались в его жизнь, похитив любимую кузину Хидзири, не стал в истерике кататься по полу, размазывая слезы, а твердо решил сам овладеть магией и рассчитаться с обидчиками. Парень, не раздумывая, принял предложение таинственной красавицы Лилит и поступил в академию магии, где ему понравилось - ведь директор прямо заявил, что для достижения цели Арата должен завести гарем из семи сильнейших волшебниц!

Гарем – дело серьезное, так что главный герой первым делом узнал, что все его будущие девушки – местные знаменитости, составляющие так называемую «семерку троицы», и каждая черпает силы в одном из семи смертных грехов. Ничего, Арата и сам темный маг, настолько крутой и резкий, что его принимают за будущего «князя тьмы». Отношения начались непросто – если Лилит, Арин и Леви всей душой за нового друга, то Мира и Акио считают его угрозой стабильности, а до Юй и Лизы надо еще добраться. Ничего, собрать команду и наказать закулисных кукловодов – это полдела, главное – выжить, когда подруги между собой разбираться начнут!

© Hollow, World Art
Информационные ссылки: AniDB || World Art || MAL
Качество: BDRemux
Тип видео: без хардсаба, без линковки
Формат видео: M2TS
Видео: AVC, 8 bits, 1920x1080 (16:9), 23.976 fps, ~37.5 Mbps
Аудио JAP: PCM, 48000Hz, 2ch, ~2304 Kbps

[code][/code]
Общее
Идентификатор: 1 (0x1)
Полное имя: C:\Раздачи\Trinity Seven [BDRemux] [1080p]\Trinity Seven 01.m2ts
Формат: BDAV
Формат/Информация: Blu-ray Video
Размер файла: 6,93 Гбайт
Продолжительность: 24 м.
Режим общего битрейта: Переменный
Общий поток: 41,4 Мбит/сек
Максимальный общий битрейт: 35,5 Мбит/сек

Видео
Идентификатор: 4113 (0x1011)
Идентификатор меню: 1 (0x1)
Формат: AVC
Формат/Информация: Advanced Video Codec
Профиль формата: [email protected]
Параметр CABAC формата: Да
Параметр ReFrames формата: 4 кадра
Идентификатор кодека: 27
Продолжительность: 24 м.
Вид битрейта: Переменный
Битрейт: 37,5 Мбит/сек
Максимальный битрейт: 39,0 Мбит/сек
Ширина: 1920 пикселей
Высота: 1080 пикселей
Соотношение сторон: 16:9
Частота кадров: 23,976 кадра/сек
Цветовое пространство: YUV
Субдискретизация насыщенности: 4:2:0
Битовая глубина: 8 бит
Тип развёртки: Прогрессивная
Бит/(Пиксели*Кадры): 0.754
Размер потока: 6,27 Гбайт (90%)

Аудио
Идентификатор: 4352 (0x1100)
Идентификатор меню: 1 (0x1)
Формат: PCM
Параметр Endianness формата: Big
Параметр Sign формата: Signed
Режим смешивания: Blu-ray
Идентификатор кодека: 128
Продолжительность: 24 м.
Вид битрейта: Постоянный
Битрейт: 2304 Кбит/сек
Каналы: 2 канала
Расположение каналов: Front: L R
Частота: 48,0 КГц
Битовая глубина: 24 бит
Размер потока: 394 Мбайт (6%)
01. Administer and Third Selection
02. Prison Lock and Grimoire Security
03. Magus and Alchemist
04. Labyrinth and Magic Gunner
05. Dream World and Sub-Administer
06. Dark Mage and Big Event
07. Lost Technica and Problem Solving
08. Study and Holiday
09. Bible Battle and Sweet Memory
10. Game Master and Satan Slave
11. Fianna Knights and Sisters
12. Criminal Girl and His World
   
Торрент: Зарегистрирован [29 июн 2015, 22:36] За каждые 2 ГБ. аплоада (сидирования) этого торрента начисляется бонус: 0.001 Золотая раздача - Скачанное не учитывается на 100% Скачать торрент
Скачать торрент
[ Размер 209.62 КБ / Просмотров 53 ]

Статус:
 
Приватный: Нет (DHT включён)
Размер: 82.97 ГБ (89 092 801 272 байт)
   
Аватара пользователя

Супермодератор
Супермодератор
 
Раздал: 24.34 ТБ
Скачал: 1.72 ТБ
Ратио: 20.884
Сообщения: 7936
Фото: 127
Зарегистрирован: 26 ноя 2012, 17:20
Medals: 2
1000 раздач! (1) Меценат №2 (1)
ТегиTrinity Seven

Re: Святая семёрка / Trinity Seven (Нисикиори Хироси) [TV] [12 из 12] [Без хардсаба] [JAP+SUB] [2014 г., приключения, комедия, фэнтези, этти, BDRemux] [1080p]

Сообщение Фаромир брат » 29 июн 2015, 22:36

все серии
Аватара пользователя

Супермодератор
Супермодератор
 
Раздал: 24.34 ТБ
Скачал: 1.72 ТБ
Ратио: 20.884
Сообщения: 7936
Фото: 127
Зарегистрирован: 26 ноя 2012, 17:20
Medals: 2
1000 раздач! (1) Меценат №2 (1)


Вернуться в HD и BDrip

Кто сейчас на конференции

Зарегистрированные пользователи: нет зарегистрированных пользователей

cron
Ресурс не предоставляет электронные версии произведений, а занимается лишь коллекционированием и каталогизацией ссылок, присылаемых и публикуемых на форуме нашими читателями. Если вы являетесь правообладателем какого-либо представленного материала и не желаете чтобы ссылка на него находилась в нашем каталоге, свяжитесь с нами и мы незамедлительно удалим её. Файлы для обмена на трекере предоставлены пользователями сайта, и администрация не несёт ответственности за их содержание. Просьба не заливать файлы, защищенные авторскими правами, а также файлы нелегального содержания!
cron