Демоны старшей школы (ТВ-3) / High School DxD Born [TV] [3 из 12] [Без хардсаба] [JAP, SUB] [2015 г., демоны, фентези, гарем, приключения, эччи, мистика, комедия, HDTVRip] [720p] скачать торрент

Модератор: Модераторы аниме

  • Статистика раздачи
Размер: 1.11 ГБ   |  Зарегистрирован: 25 апр 2015, 20:53   |   .torrent скачан: 1 раз
Сидеров: 0  [ 0 байт/сек ]     Личеров: 0  [ 0 байт/сек ]  
Список файлов : Кто скачал : Раздают : Скачивают : Кто благодарил : История : Не раздающие : Запрашивали сидеров : Внешние трекеры 
  

Демоны старшей школы (ТВ-3) / High School DxD Born [TV] [3 из 12] [Без хардсаба] [JAP, SUB] [2015 г., демоны, фентези, гарем, приключения, эччи, мистика, комедия, HDTVRip] [720p]

Сообщение Фаромир брат » 25 апр 2015, 20:53

Демоны старшей школы (ТВ-3) / High School DxD Born

Страна: Япония
Год выпуска: 2015 г.
Жанр: демоны, фентези, гарем, приключения, эччи, мистика, Комедия
Тип: TV
Продолжительность: 12 эп. по 25 мин

Режиссер: Янагисава Тэцуя (Yanagisawa Tetsuya)
Студия: TNK

Описание:
Действие сериала происходит почти сразу после 2го сезона. Все девушки переселились к Иссею, а прежний дом превратился в шикарный особняк. Но всё ли хорошо в Гареме. Ведь и Белый Дракон без дела не сидит.

Качество: HDTVRip
Тип релиза: Без хардсаба
Формат видео: MP4
Наличие линковки: Нет
Релиз/Автор рипа: Leopard-Raws
Видео: H264, 1280x720, 2200 kbps, 23.976 fps, 8 bit
Аудио: AAC, 192 kbps, 48000 Hz, stereo Язык Японский
Субтитры 1: ass, внешним файлом Язык субтитров русский ;
Переводчик: Alvakarp [Sovet Romantica]
Редактор: Angara [Sovet Romantica]
Субтитры 2: ass, внешним файлом Язык субтитров русский ;
Переводчик: Hiroshi-kun
Перевод песен/Оформление: Redgar-firegorn [Firegorn-Team]
Редактор: UzurpatorKel
Субтитры 3: ass, внешним файлом Язык субтитров русский ;
Переводчик: Buka63 [Timecraft]

Не забываем "благодарить" и писать комментарии. Это стимулирует дальнейшие раздачи.
Код: Выделить всё
Код:
Код: Выделить всё
General
Complete name               : E:\ongoing\High School DxD Born\[Leopard-Raws] High School DxD Born - 01 RAW (ATX 1280x720 x264 AAC).mp4
Format                      : MPEG-4
Format profile              : Base Media
Codec ID                    : isom
File size                   : 411 MiB
Duration                    : 24mn 0s
Overall bit rate mode       : Variable
Overall bit rate            : 2 397 Kbps
Encoded date                : UTC 2015-04-04 16:52:35
Tagged date                 : UTC 2015-04-04 16:52:35

Video
ID                          : 1
Format                      : AVC
Format/Info                 : Advanced Video Codec
Format profile              : [email protected]
Format settings, CABAC      : Yes
Format settings, ReFrames   : 4 frames
Codec ID                    : avc1
Codec ID/Info               : Advanced Video Coding
Duration                    : 24mn 0s
Bit rate                    : 2 201 Kbps
Maximum bit rate            : 10.5 Mbps
Width                       : 1 280 pixels
Height                      : 720 pixels
Display aspect ratio        : 16:9
Frame rate mode             : Constant
Frame rate                  : 23.976 fps
Color space                 : YUV
Chroma subsampling          : 4:2:0
Bit depth                   : 8 bits
Scan type                   : Progressive
Bits/(Pixel*Frame)          : 0.100
Stream size                 : 378 MiB (92%)
Title                       : 264:[email protected]
Writing library             : x264 core 129 r2245+729M 1a52e03
Encoding settings           : cabac=1 / ref=4 / deblock=1:1:-1 / analyse=0x3:0x113 / me=umh / subme=9 / psy=1 / fade_compensate=0.00 / psy_rd=1.00:0.00 / mixed_ref=1 / me_range=24 / chroma_me=1 / trellis=2 / 8x8dct=1 / cqm=0 / deadzone=21,11 / fast_pskip=1 / chroma_qp_offset=-2 / threads=8 / lookahead_threads=1 / sliced_threads=0 / nr=0 / decimate=1 / interlaced=0 / bluray_compat=0 / constrained_intra=0 / fgo=0 / bframes=9 / b_pyramid=2 / b_adapt=2 / b_bias=0 / direct=1 / weightb=1 / open_gop=0 / weightp=2 / keyint=240 / keyint_min=24 / scenecut=40 / intra_refresh=0 / rc=crf / mbtree=0 / crf=18.5 / qcomp=0.72 / qpmin=0 / qpmax=69 / qpstep=4 / ip_ratio=1.40 / pb_ratio=1.30 / aq=1:0.85
Encoded date                : UTC 2015-04-04 16:52:35
Tagged date                 : UTC 2015-04-04 16:52:39
Color primaries             : BT.709
Transfer characteristics    : BT.709
Matrix coefficients         : BT.709
Color range                 : Limited

Audio
ID                          : 2
Format                      : AAC
Format/Info                 : Advanced Audio Codec
Format profile              : LC
Codec ID                    : 40
Duration                    : 24mn 0s
Bit rate mode               : Variable
Bit rate                    : 192 Kbps
Maximum bit rate            : 232 Kbps
Channel(s)                  : 2 channels
Channel positions           : Front: L R
Sampling rate               : 48.0 KHz
Compression mode            : Lossy
Stream size                 : 33.0 MiB (8%)
Language                    : Japanese
Encoded date                : UTC 2015-04-04 15:03:54
Tagged date                 : UTC 2015-04-04 16:52:39

01 Summer Break! Off to the Underworld! 04.04.2015
02 Young Devils Gather! 11.04.2015
03 Cat and Dragon! 18.04.2015
04
   
Торрент: Зарегистрирован [25 апр 2015, 20:53] Скачать торрент
Скачать торрент
[ Размер 12.7 КБ / Просмотров 67 ]

Статус:
 
Приватный: Нет (DHT включён)
Размер: 1.11 ГБ (1 189 375 718 байт)
   
Аватара пользователя

Супермодератор
Супермодератор
 
Раздал: 24.34 ТБ
Скачал: 1.72 ТБ
Ратио: 20.884
Сообщения: 7936
Фото: 127
Зарегистрирован: 26 ноя 2012, 17:20
Medals: 2
1000 раздач! (1) Меценат №2 (1)

Вернуться в HD и BDrip

Кто сейчас на конференции

Зарегистрированные пользователи: нет зарегистрированных пользователей

cron
Ресурс не предоставляет электронные версии произведений, а занимается лишь коллекционированием и каталогизацией ссылок, присылаемых и публикуемых на форуме нашими читателями. Если вы являетесь правообладателем какого-либо представленного материала и не желаете чтобы ссылка на него находилась в нашем каталоге, свяжитесь с нами и мы незамедлительно удалим её. Файлы для обмена на трекере предоставлены пользователями сайта, и администрация не несёт ответственности за их содержание. Просьба не заливать файлы, защищенные авторскими правами, а также файлы нелегального содержания!
cron