Девчата на колёсах / The Rolling Girls [TV] [8 из 12] [Без хардсаба] [JAP, SUB] [2015 г., Приключения, HDTVRip] [720p] скачать торрент

Модератор: Модераторы аниме

  • Статистика раздачи
Размер: 3.26 ГБ   |  Зарегистрирован: 19 апр 2015, 13:46   |   .torrent скачан: 0 раз
Сидеров: 0  [ 0 байт/сек ]     Личеров: 0  [ 0 байт/сек ]  
Список файлов : Кто скачал : Раздают : Скачивают : Кто благодарил : История : Не раздающие : Запрашивали сидеров : Внешние трекеры 
  

Девчата на колёсах / The Rolling Girls [TV] [8 из 12] [Без хардсаба] [JAP, SUB] [2015 г., Приключения, HDTVRip] [720p]

Сообщение Фаромир брат » 19 апр 2015, 13:46

Девчата на колёсах / The Rolling Girls

Страна: Япония
Год выпуска: 2015 г.
Жанр: Приключения
Тип: TV
Продолжительность: 12 эп. по 25 мин
Режиссер: Дэай Котоми
Студия:

Описание: После Великой Токийской войны прошло десять лет. Японские префектуры стали независимыми государствами, каждым из которых правит «Ветеран», поддерживаемый армией «Пешек» в борьбе с другими государствами-кланами.
Предводитель саитамского клана приказывает четырём пешкам — Нодзоми, Юкине, Аи и Тиае — отправиться в мотопробег по Японии, чтобы договариваться о битвах с каждым встреченным кланом.
Тут-то и начинаются повседневные приключения девушек, влюблённых в мотоциклы. Они падают, но поднимаются, чтобы снова идти вперёд, несмотря на то, что судьбой им уготовлено остаться «Пешками». Или нет?

Качество: HDTVRip
Тип релиза: Без хардсаба
Формат видео: MP4
Наличие линковки: Нет
Релиз/Автор рипа: Leopard-Raws
Видео: x264, 8 bit, 1280x720, 2348 кб/с, 23,976 fps
Аудио: AAC, 192 кб/с VBR, 48000 Гц, 2 ch Язык Японский ; Озвучка: Оригинал
Субтитры: Внешние Язык субтитров русский;
Перевод: Vii (AniPanic),
Редактура: Veles (AniPanic),
Сверка с оригиналом Yujin (Dreamers Team),
Оформление и контроль (серии 1-6): Харитон Харько
Раздача обновляется по мере выхода субтитров. 07.03.2015: Восьмая серия.
Приятного просмотра!
Код: Выделить всё
General
Complete name                  : H:\Rolling Girls\[Leopard-Raws] The Rolling Girls - 01 RAW (MBS 1280x720 x264 AAC).mp4
Format                         : MPEG-4
Format profile                 : Base Media
Codec ID                       : isom
File size                      : 446 MiB
Duration                       : 24mn 29s
Overall bit rate mode          : Variable
Overall bit rate               : 2 544 Kbps
Encoded date                   : UTC 2015-01-11 07:41:58
Tagged date                    : UTC 2015-01-11 07:41:58

Video
ID                             : 1
Format                         : AVC
Format/Info                    : Advanced Video Codec
Format profile                 : [email protected]
Format settings, CABAC         : Yes
Format settings, ReFrames      : 4 frames
Codec ID                       : avc1
Codec ID/Info                  : Advanced Video Coding
Duration                       : 24mn 29s
Bit rate                       : 2 348 Kbps
Maximum bit rate               : 18.3 Mbps
Width                          : 1 280 pixels
Height                         : 720 pixels
Display aspect ratio           : 16:9
Frame rate mode                : Constant
Frame rate                     : 23.976 fps
Color space                    : YUV
Chroma subsampling             : 4:2:0
Bit depth                      : 8 bits
Scan type                      : Progressive
Bits/(Pixel*Frame)             : 0.106
Stream size                    : 411 MiB (92%)
Title                          : 264:[email protected]
Writing library                : x264 core 129 r2245+729M 1a52e03
Encoding settings              : cabac=1 / ref=4 / deblock=1:1:-1 / analyse=0x3:0x113 / me=umh / subme=9 / psy=1 / fade_compensate=0.00 / psy_rd=1.00:0.00 / mixed_ref=1 / me_range=24 / chroma_me=1 / trellis=2 / 8x8dct=1 / cqm=0 / deadzone=21,11 / fast_pskip=1 / chroma_qp_offset=-2 / threads=8 / lookahead_threads=1 / sliced_threads=0 / nr=0 / decimate=1 / interlaced=0 / bluray_compat=0 / constrained_intra=0 / fgo=0 / bframes=9 / b_pyramid=2 / b_adapt=2 / b_bias=0 / direct=1 / weightb=1 / open_gop=0 / weightp=2 / keyint=240 / keyint_min=24 / scenecut=40 / intra_refresh=0 / rc=crf / mbtree=0 / crf=18.5 / qcomp=0.72 / qpmin=0 / qpmax=69 / qpstep=4 / ip_ratio=1.40 / pb_ratio=1.30 / aq=1:0.85
Encoded date                   : UTC 2015-01-11 07:41:58
Tagged date                    : UTC 2015-01-11 07:42:03
Color primaries                : BT.709
Transfer characteristics       : BT.709
Matrix coefficients            : BT.709

Audio
ID                             : 2
Format                         : AAC
Format/Info                    : Advanced Audio Codec
Format profile                 : LC
Codec ID                       : 40
Duration                       : 24mn 29s
Bit rate mode                  : Variable
Bit rate                       : 192 Kbps
Maximum bit rate               : 251 Kbps
Channel(s)                     : 2 channels
Channel positions              : Front: L R
Sampling rate                  : 48.0 KHz
Compression mode               : Lossy
Stream size                    : 33.6 MiB (8%)
Language                       : Japanese
Encoded date                   : UTC 2015-01-10 20:51:24
Tagged date                    : UTC 2015-01-11 07:42:03
01. Бравый новобранец.
02. Сердце мира.
03. По стопам кумира.
04. Мечты.
05. Обманувший надежды.
06. Молниеносный.
07. Дай мне звезду.
08. После дождя.



   
Торрент: Зарегистрирован [19 апр 2015, 13:46] Скачать торрент
Скачать торрент
[ Размер 18.36 КБ / Просмотров 50 ]

Статус:
 
Приватный: Нет (DHT включён)
Размер: 3.26 ГБ (3 496 336 900 байт)
   
Аватара пользователя

Супермодератор
Супермодератор
 
Раздал: 24.34 ТБ
Скачал: 1.72 ТБ
Ратио: 20.884
Сообщения: 7936
Фото: 127
Зарегистрирован: 26 ноя 2012, 17:20
Medals: 2
1000 раздач! (1) Меценат №2 (1)

Вернуться в HD и BDrip

Кто сейчас на конференции

Зарегистрированные пользователи: нет зарегистрированных пользователей

Ресурс не предоставляет электронные версии произведений, а занимается лишь коллекционированием и каталогизацией ссылок, присылаемых и публикуемых на форуме нашими читателями. Если вы являетесь правообладателем какого-либо представленного материала и не желаете чтобы ссылка на него находилась в нашем каталоге, свяжитесь с нами и мы незамедлительно удалим её. Файлы для обмена на трекере предоставлены пользователями сайта, и администрация не несёт ответственности за их содержание. Просьба не заливать файлы, защищенные авторскими правами, а также файлы нелегального содержания!
cron