Крест Анжи: Танец ангела с драконом / Cross Ange: Rondo of Angels and Dragons (Асино Ёсихару) [TV] [25 из 25] [Без хардсаба] [JAP+SUB] [2014 г., приключения, меха HDTVRip] [720p] скачать торрент

Модератор: Модераторы аниме

  • Статистика раздачи
Размер: 14.44 ГБ   |  Зарегистрирован: 10 апр 2015, 18:13   |   .torrent скачан: 1 раз
Сидеров: 0  [ 0 байт/сек ]     Личеров: 0  [ 0 байт/сек ]  
Список файлов : Кто скачал : Раздают : Скачивают : Кто благодарил : История : Не раздающие : Запрашивали сидеров : Внешние трекеры 
  

Крест Анжи: Танец ангела с драконом / Cross Ange: Rondo of Angels and Dragons (Асино Ёсихару) [TV] [25 из 25] [Без хардсаба] [JAP+SUB] [2014 г., приключения, меха HDTVRip] [720p]

Сообщение Фаромир брат » 10 апр 2015, 18:13

Крест Анжи: Танец ангела с драконом / Cross Ange: Rondo of Angels and Dragons
Страна: Япония
Год выпуска: 2014 г.
Жанр: Приключения, меха
Тип: TV
Продолжительность: 25 эп. по 25 мин
Перевод на русский: Zero
Перевод песен: Мария Гостюхина

Режиссер: Асино Ёсихару

Студия:

Описание: Благодаря огромному прогрессу в технологии под названием «Мана», человеческий род смог подавить все войны, предотвратить голод, загрязнения и другие земные проблемы полагаясь на её силу, подобную магии. Земля стала мирной утопией без каких-либо нужд.
Первая принцесса империи Мисуруги, Ангелайз, как и все, живёт, не зная забот. Жители империи души в ней не чаяли, и она уже готовилась к коронации. Однако ей раскрывается шокирующая правда о том, что она «Норма». «Норма» — необычный человек, неспособный использовать ману, к которому относятся как к предмету и еретику. Будучи лишённой всего, она уединилась на удалённом острове.
На острове же её ждала судьбоносная встреча с группой девушек «Норма», живущих одними лишь сражениями. Дни напролёт они разъезжают в гуманоидных роботах «Барамэиру», охотясь на драконов, вторгающихся из иного мира. Что ждёт солдата Анге, лишённой своего статуса, в конце её сражения? Во что ей верить? Чего она добьётся? История о храбрости одинокой девушки начнётся этой осенью.

Равка: Leopard-Raws
Качество: HDTVRip
Хардсаб: Отсутствует
Формат видео: mkv
Видео: AVC, 8 bits, 1280x720, 3766 kbps, 23.976 fps, (16:9)
Аудио:
1. JP - AAC, 192 kbps, 48.0 KHz, 2 ch
01. Низложение
02. Непокорная
03. Пробуждение Вилкисса
04. Бунт одиночки
05. Пропавшая без вести
06. А вот и Момока!
07. Меланхолия Салии
08. Побег под прикрытием
09. Родина предательства
10. До встречи на виселице
11. Песня Дракона
12. Исповедь отверженной
13. Пылающий Арсенал
14. Затерянные
15. Другая Земля
16. Резонанс миров
17. Чёрные Ангелы
18. Другой выбор
19. Настройщик мира
20. Чего желает Бог
21. Те, кого мы потеряли
22. Ради чего жить
23. Искажённый мир
24. Железные девы
25. За гранью
Общее
Полное имя : D:\[Leopard-Raws]\[Leopard-Raws] Cross Ange - Tenshi to Ryuu no Rondo\[Leopard-Raws] Cross Ange - Tenshi to Ryuu no Rondo - 01 RAW (MX 1280x720 x264 AAC).mp4
Формат : MPEG-4
Профиль формата : Base Media
Идентификатор кодека : isom
Размер файла : 680 Мбайт
Продолжительность : 23 м.
Режим общего битрейта : Переменный
Общий поток : 3962 Кбит/сек
Дата кодирования : UTC 2014-10-05 02:08:23
Дата пометки : UTC 2014-10-05 02:08:23

Видео
Идентификатор : 1
Формат : AVC
Формат/Информация : Advanced Video Codec
Профиль формата : [email protected]
Параметр CABAC формата : Да
Параметр ReFrames формата : 4 кадра
Идентификатор кодека : avc1
Идентификатор кодека/Информация : Advanced Video Coding
Продолжительность : 23 м.
Битрейт : 3766 Кбит/сек
Максимальный битрейт : 16,7 Мбит/сек
Ширина : 1280 пикселей
Высота : 720 пикселей
Соотношение сторон : 16:9
Режим частоты кадров : Постоянный
Частота кадров : 23,976 кадра/сек
Цветовое пространство : YUV
Субдискретизация насыщенности : 4:2:0
Битовая глубина : 8 бит
Тип развёртки : Прогрессивная
Бит/(Пиксели*Кадры) : 0.170
Размер потока : 646 Мбайт (95%)
Заголовок : 264:[email protected]
Библиотека кодирования : x264 core 129 r2245+729M 1a52e03
Настройки программы : cabac=1 / ref=4 / deblock=1:1:-1 / analyse=0x3:0x113 / me=umh / subme=9 / psy=1 / fade_compensate=0.00 / psy_rd=1.00:0.00 / mixed_ref=1 / me_range=24 / chroma_me=1 / trellis=2 / 8x8dct=1 / cqm=0 / deadzone=21,11 / fast_pskip=1 / chroma_qp_offset=-2 / threads=8 / lookahead_threads=1 / sliced_threads=0 / nr=0 / decimate=1 / interlaced=0 / bluray_compat=0 / constrained_intra=0 / fgo=0 / bframes=9 / b_pyramid=2 / b_adapt=2 / b_bias=0 / direct=1 / weightb=1 / open_gop=0 / weightp=2 / keyint=240 / keyint_min=24 / scenecut=40 / intra_refresh=0 / rc=crf / mbtree=0 / crf=18.0 / qcomp=0.72 / qpmin=0 / qpmax=69 / qpstep=4 / ip_ratio=1.40 / pb_ratio=1.30 / aq=1:0.85
Дата кодирования : UTC 2014-10-05 02:08:23
Дата пометки : UTC 2014-10-05 02:08:26
Основные цвета : BT.709
Характеристики трансфера : BT.709
Коэффициенты матрицы : BT.709

Аудио
Идентификатор : 2
Формат : AAC
Формат/Информация : Advanced Audio Codec
Профиль формата : LC
Идентификатор кодека : 40
Продолжительность : 23 м.
Вид битрейта : Переменный
Битрейт : 192 Кбит/сек
Максимальный битрейт : 220 Кбит/сек
Каналы : 2 канала
Расположение каналов : Front: L R
Частота : 48,0 КГц
Метод сжатия : С потерями
Размер потока : 33,0 Мбайт (5%)
Язык : Japanese
Дата кодирования : UTC 2014-10-04 18:03:33
Дата пометки : UTC 2014-10-05 02:08:26


Добавлена 25я серия
   
Торрент: Зарегистрирован [10 апр 2015, 18:13] За каждые 2 ГБ. аплоада (сидирования) этого торрента начисляется бонус: 0.001 Золотая раздача - Скачанное не учитывается на 100% Скачать торрент
Скачать торрент
[ Размер 42.97 КБ / Просмотров 82 ]

Статус:
 
Приватный: Нет (DHT включён)
Размер: 14.44 ГБ (15 507 479 497 байт)
   
Аватара пользователя

Супермодератор
Супермодератор
 
Раздал: 24.34 ТБ
Скачал: 1.72 ТБ
Ратио: 20.884
Сообщения: 7936
Фото: 127
Зарегистрирован: 26 ноя 2012, 17:20
Medals: 2
1000 раздач! (1) Меценат №2 (1)

Вернуться в HD и BDrip

Кто сейчас на конференции

Зарегистрированные пользователи: нет зарегистрированных пользователей

Ресурс не предоставляет электронные версии произведений, а занимается лишь коллекционированием и каталогизацией ссылок, присылаемых и публикуемых на форуме нашими читателями. Если вы являетесь правообладателем какого-либо представленного материала и не желаете чтобы ссылка на него находилась в нашем каталоге, свяжитесь с нами и мы незамедлительно удалим её. Файлы для обмена на трекере предоставлены пользователями сайта, и администрация не несёт ответственности за их содержание. Просьба не заливать файлы, защищенные авторскими правами, а также файлы нелегального содержания!
cron