Фронт кровавой блокады / Kekkai Sensen / Blood Blockade Battlefront (Мацумото Риэ) [TV] [11 из >12] [без хардсаба] [JAP+SUB] [2015 г., приключения, фэнтези, сверхъестественное, HDTVRip] [720p] скачать торрент

Модератор: Модераторы аниме

  • Статистика раздачи
Размер: 5.5 ГБ   |  Зарегистрирован: 07 июл 2015, 22:12   |   .torrent скачан: 0 раз
Сидеров: 0  [ 0 байт/сек ]     Личеров: 0  [ 0 байт/сек ]  
Список файлов : Кто скачал : Раздают : Скачивают : Кто благодарил : История : Не раздающие : Запрашивали сидеров : Внешние трекеры 
  

Фронт кровавой блокады / Kekkai Sensen / Blood Blockade Battlefront (Мацумото Риэ) [TV] [11 из >12] [без хардсаба] [JAP+SUB] [2015 г., приключения, фэнтези, сверхъестественное, HDTVRip] [720p]

Сообщение Фаромир брат » 10 апр 2015, 17:59

Фронт кровавой блокады | Kekkai Sensen | Blood Blockade Battlefront



Год выпуска: 2015
Страна: Япония
Жанр: приключения, фэнтези, сверхъестественное.

Режиссёр: Мацумото Риэ.
Студия: BONES (подробнее...)


Перевод:
Русские субтитры: [LeDi-MaHo Team]Перевод & лирика: MantisFL[*]Редакция & оформление: Holydarkness
Описание: В небе над Нью-Йорком разверзлась дыра, ведущая в другое измерение. Разрыв ширился и накрыл весь город непробиваемым колпаком, заперев жителей вместе с пришедшими из той стороны созданиями. Годами эти существа и люди вынуждены жить бок о бок друг с другом, сосуществуя в сумасшедшем мире криминала, высоких технологий и сверхспособностей.
Сюжет крутится вокруг борющейся со «злом» организации «Либра» и её необычных участников, которые встали на защиту «Сферы», дабы не пустить монстров во внешний мир. World Art.

Качество: HDTVRip | Формат: MP4 | Тип видео: без хардсаба | Продолжительность: ТВ (>12 эп.), 25 мин. | Видео: [Leopard-Raws]
Видео кодек: H.264
Аудио кодек: AAC
Видео: H.264; 1280x720; ~2235Kbps, 23.976fps; (8 bit)
Аудио: JAP, AAC; 48000Hz; ~192Kbps (2ch);

01.The Secret Society of the Sealed City of Magic.
02.After the Phantom Ghost Wagon.
03.A Game Between Two Worlds.
04.Blood Line Fever.
05.The Tremorous Blood Hammer.
06.Don`t Forget to Don`t Forget Me.
07.A No-Holds-Barred Eden.
08.Z`s Longest Day (Part 1).
09.Z`s Longest Day (Part 2).
10.Run! Lunch!! Run!!! / To the End.
10.5.Even These Are the Worst and the Best Days Ever.
11.Paint It Black.

Общее
Полное имя : C:\Users\Home PC\Videos\Раздачи\Kekkai Sensen\Kekkai Sensen - 01.mp4
Формат : MPEG-4
Профиль формата : Base Media
Идентификатор кодека : isom
Размер файла : 426 Мбайт
Продолжительность : 24 м.
Режим общего битрейта : Переменный
Общий поток : 2431 Кбит/сек
Дата кодирования : UTC 2015-04-05 07:07:03
Дата пометки : UTC 2015-04-05 07:07:03

Видео
Идентификатор : 1
Формат : AVC
Формат/Информация : Advanced Video Codec
Профиль формата : [email protected]
Параметр CABAC формата : Да
Параметр ReFrames формата : 4 кадра
Идентификатор кодека : avc1
Идентификатор кодека/Информация : Advanced Video Coding
Продолжительность : 24 м.
Битрейт : 2235 Кбит/сек
Максимальный битрейт : 20,6 Мбит/сек
Ширина : 1280 пикселей
Высота : 720 пикселей
Соотношение сторон : 16:9
Режим частоты кадров : Постоянный
Частота кадров : 23,976 кадра/сек
Цветовое пространство : YUV
Субдискретизация насыщенности : 4:2:0
Битовая глубина : 8 бит
Тип развёртки : Прогрессивная
Бит/(Пиксели*Кадры) : 0.101
Размер потока : 392 Мбайт (92%)
Заголовок : 264:[email protected]
Библиотека кодирования : x264 core 129 r2245+729M 1a52e03
Настройки программы : cabac=1 / ref=4 / deblock=1:1:-1 / analyse=0x3:0x113 / me=umh / subme=9 / psy=1 / fade_compensate=0.00 / psy_rd=1.00:0.00 / mixed_ref=1 / me_range=24 / chroma_me=1 / trellis=2 / 8x8dct=1 / cqm=0 / deadzone=21,11 / fast_pskip=1 / chroma_qp_offset=-2 / threads=8 / lookahead_threads=1 / sliced_threads=0 / nr=0 / decimate=1 / interlaced=0 / bluray_compat=0 / constrained_intra=0 / fgo=0 / bframes=9 / b_pyramid=2 / b_adapt=2 / b_bias=0 / direct=1 / weightb=1 / open_gop=0 / weightp=2 / keyint=240 / keyint_min=24 / scenecut=40 / intra_refresh=0 / rc=crf / mbtree=0 / crf=18.5 / qcomp=0.72 / qpmin=0 / qpmax=69 / qpstep=4 / ip_ratio=1.40 / pb_ratio=1.30 / aq=1:0.85
Дата кодирования : UTC 2015-04-05 07:07:03
Дата пометки : UTC 2015-04-05 07:07:06
Основные цвета : BT.709
Характеристики трансфера : BT.709
Коэффициенты матрицы : BT.709

Аудио
Идентификатор : 2
Формат : AAC
Формат/Информация : Advanced Audio Codec
Профиль формата : LC
Идентификатор кодека : 40
Продолжительность : 24 м.
Вид битрейта : Переменный
Битрейт : 192 Кбит/сек
Максимальный битрейт : 269 Кбит/сек
Каналы : 2 канала
Расположение каналов : Front: L R
Частота : 48,0 КГц
Метод сжатия : С потерями
Размер потока : 33,7 Мбайт (8%)
Язык : Japanese
Дата кодирования : UTC 2015-04-04 18:21:45
Дата пометки : UTC 2015-04-05 07:07:06

Внимание! Это обновляемая раздача. Серии добавляются по мере выхода русских субтитров.

   
Торрент: Зарегистрирован [07 июл 2015, 22:12] За каждые 2 ГБ. аплоада (сидирования) этого торрента начисляется бонус: 0.001 Скачать торрент
Скачать торрент
[ Размер 29.21 КБ / Просмотров 225 ]

Статус:
 
Приватный: Нет (DHT включён)
Размер: 5.5 ГБ (5 907 235 064 байт)
   
Аватара пользователя

Супермодератор
Супермодератор
 
Раздал: 24.34 ТБ
Скачал: 1.72 ТБ
Ратио: 20.884
Сообщения: 7936
Фото: 127
Зарегистрирован: 26 ноя 2012, 17:20
Medals: 2
1000 раздач! (1) Меценат №2 (1)

Re: Фронт кровавой блокады / Kekkai Sensen / Blood Blockade Battlefront (Мацумото Риэ) [TV] [2 из >12] [без хардсаба] [JAP+SUB] [2015 г., приключения, фэнтези, сверхъестественное, HDTVRip] [720p]

Сообщение Фаромир брат » 16 апр 2015, 22:50

вторая серия!
Аватара пользователя

Супермодератор
Супермодератор
 
Раздал: 24.34 ТБ
Скачал: 1.72 ТБ
Ратио: 20.884
Сообщения: 7936
Фото: 127
Зарегистрирован: 26 ноя 2012, 17:20
Medals: 2
1000 раздач! (1) Меценат №2 (1)

Re: Фронт кровавой блокады / Kekkai Sensen / Blood Blockade Battlefront (Мацумото Риэ) [TV] [11 из >12] [без хардсаба] [JAP+SUB] [2015 г., приключения, фэнтези, сверхъестественное, HDTVRip] [720p]

Сообщение Фаромир брат » 07 июл 2015, 22:13

Торрент обновлён. Добавлена одиннадцатая серия
Аватара пользователя

Супермодератор
Супермодератор
 
Раздал: 24.34 ТБ
Скачал: 1.72 ТБ
Ратио: 20.884
Сообщения: 7936
Фото: 127
Зарегистрирован: 26 ноя 2012, 17:20
Medals: 2
1000 раздач! (1) Меценат №2 (1)


Вернуться в HD и BDrip

Кто сейчас на конференции

Зарегистрированные пользователи: нет зарегистрированных пользователей

cron
Ресурс не предоставляет электронные версии произведений, а занимается лишь коллекционированием и каталогизацией ссылок, присылаемых и публикуемых на форуме нашими читателями. Если вы являетесь правообладателем какого-либо представленного материала и не желаете чтобы ссылка на него находилась в нашем каталоге, свяжитесь с нами и мы незамедлительно удалим её. Файлы для обмена на трекере предоставлены пользователями сайта, и администрация не несёт ответственности за их содержание. Просьба не заливать файлы, защищенные авторскими правами, а также файлы нелегального содержания!
cron