По велению адской сестры / Shinmai Maou no Testament (Сайто Хисаси) [TV] [12 из 12] [Без хардсаба] [JAP+SUB] [2015 г., экшн, сёнэн, фэнтези, комедия, этти, гарем, романтика, приключения, BDRip] [720p] скачать торрент

Модератор: Модераторы аниме

  • Статистика раздачи
Размер: 4 ГБ   |  Зарегистрирован: 07 июл 2015, 22:33   |   .torrent скачан: 0 раз
Сидеров: 0  [ 0 байт/сек ]     Личеров: 0  [ 0 байт/сек ]  
Список файлов : Кто скачал : Раздают : Скачивают : Кто благодарил : История : Не раздающие : Запрашивали сидеров : Внешние трекеры 
  

По велению адской сестры / Shinmai Maou no Testament (Сайто Хисаси) [TV] [12 из 12] [Без хардсаба] [JAP+SUB] [2015 г., экшн, сёнэн, фэнтези, комедия, этти, гарем, романтика, приключения, BDRip] [720p]

Сообщение Фаромир брат » 01 апр 2015, 17:58

По велению адской сестры / Сестрёнка из ада повелевает / Shinmai Maou no Testament

Страна: Япония
Год выпуска: 2015 г.
Тип: TV
Жанр: Экшн, сёнэн, фэнтези, Комедия, этти, гарем, романтика, приключения
Продолжительность: 12 эп. по 25 мин
Русские субтитры: ANdeground
Переводчик: Brave
Редактор/Перевод песен: Esito

Режиссер: Сайто Хисаси

Студия:

Описание: Повелитель демонов Вильберто желал прекратить вражду между демонами и героями, что популярности в мире демонов ему не принесло. Дабы обезопасить свою дочь Мио, он велел вырастить ее в человеческом мире, как обычную девушку. После смерти Вильберто его сила была унаследована его дочерью. Поэтому нынешний повелитель демонов нацелился на жизнь девушки. Мио и ее подчиненная Мария попытались магией внушить отцу главного персонажа, Басары что у него появилась новая жена, а они теперь его приемные дочери. Будучи из клана героев отец Басары смог защититься от магии. Однако, желая защитить Мио подыграл девушке. Тем не менее, он не сказал Басаре что его новые «сестры» — демоны. В результате когда всплыл обман и Мария попыталась промыть мозги Басаре, тот разозлился и выставил демонесс из дома. Позднее, узнав что заставило их действовать подобным образом, он все же согласился жить с ними как семья. Дабы знать местоположение друг друга Мио и Басара заключили контракт хозяина и слуги, который пошел несколько не так как рассчитывала Мио и в результате демонесса стала подчиненной Басары.

Качество: BDRip | Релиз/Автор рипа: Yunaishero Формат: mp4 | Тип Видео: без хардсаба
Видео кодек: AVC
Видео: AVC, 8 bits, 1280x720, 980 kbps, 23.976 fps, (16:9)
Аудио:
1. JP - AAC, 128 kbps, 48.0 KHz, 2 ch
01. Появление сестрички
02. Первый контракт между хозяином и слугой
Общее
Полное имя : D:\Shinmai Maou no Testament [BD] [720p]\[Yunaishero] Shinmai Maou no Testament - 01 uncensored.mp4
Формат : MPEG-4
Профиль формата : Base Media
Идентификатор кодека : isom
Размер файла : 200 Мбайт
Продолжительность : 25 м.
Режим общего битрейта : Переменный
Общий поток : 1111 Кбит/сек
Дата кодирования : UTC 2015-03-25 19:24:43
Дата пометки : UTC 2015-03-25 19:24:43

Видео
Идентификатор : 1
Формат : AVC
Формат/Информация : Advanced Video Codec
Профиль формата : [email protected]
Параметр CABAC формата : Да
Параметр ReFrames формата : 6 кадров
Идентификатор кодека : avc1
Идентификатор кодека/Информация : Advanced Video Coding
Продолжительность : 25 м.
Вид битрейта : Переменный
Битрейт : 979 Кбит/сек
Максимальный битрейт : 62,5 Мбит/сек
Ширина : 1280 пикселей
Высота : 720 пикселей
Соотношение сторон : 16:9
Режим частоты кадров : Постоянный
Частота кадров : 23,976 кадра/сек
Стандарт вещания : NTSC
Цветовое пространство : YUV
Субдискретизация насыщенности : 4:2:0
Битовая глубина : 8 бит
Тип развёртки : Прогрессивная
Бит/(Пиксели*Кадры) : 0.044
Размер потока : 176 Мбайт (88%)
Библиотека кодирования : x264 core 146 r2538kMod 121396c
Настройки программы : cabac=1 / ref=6 / deblock=1:0:0 / analyse=0x3:0x133 / me=umh / subme=11 / psy=1 / fade_compensate=0.10 / psy_rd=1.00:0.00 / mixed_ref=1 / me_range=32 / chroma_me=1 / trellis=2 / 8x8dct=1 / cqm=0 / deadzone=21,11 / fast_pskip=1 / chroma_qp_offset=-2 / threads=18 / lookahead_threads=1 / sliced_threads=0 / nr=0 / decimate=1 / interlaced=0 / bluray_compat=0 / constrained_intra=0 / fgo=0 / bframes=3 / b_pyramid=0 / b_adapt=2 / b_bias=0 / direct=3 / weightb=1 / open_gop=0 / weightp=0 / keyint=240 / keyint_min=4 / scenecut=40 / intra_refresh=0 / rc_lookahead=40 / rc=2pass / mbtree=1 / bitrate=979 / ratetol=1.0 / qcomp=0.80 / qpmin=0 / qpmax=69 / qpstep=4 / cplxblur=20.0 / qblur=0.5 / vbv_maxrate=62500 / vbv_bufsize=78125 / nal_hrd=vbr / filler=0 / ip_ratio=1.40 / aq=1:1.00
Дата кодирования : UTC 2015-03-26 19:20:02
Дата пометки : UTC 2015-03-25 19:24:44
Основные цвета : BT.709
Характеристики трансфера : BT.709
Коэффициенты матрицы : BT.709

Аудио
Идентификатор : 2
Формат : AAC
Формат/Информация : Advanced Audio Codec
Профиль формата : LC
Идентификатор кодека : 40
Продолжительность : 25 м.
Вид битрейта : Переменный
Битрейт : 128 Кбит/сек
Максимальный битрейт : 172 Кбит/сек
Каналы : 2 канала
Расположение каналов : Front: L R
Частота : 48,0 КГц
Метод сжатия : С потерями
Размер потока : 23,1 Мбайт (12%)
Дата кодирования : UTC 2015-03-25 19:24:43
Дата пометки : UTC 2015-03-25 19:24:44
   
Торрент: Зарегистрирован [07 июл 2015, 22:33] Скачать торрент
Скачать торрент
[ Размер 24.76 КБ / Просмотров 78 ]

Статус:
 
Приватный: Нет (DHT включён)
Размер: 4 ГБ (4 291 453 599 байт)
   
Аватара пользователя

Супермодератор
Супермодератор
 
Раздал: 24.34 ТБ
Скачал: 1.72 ТБ
Ратио: 20.884
Сообщения: 7936
Фото: 127
Зарегистрирован: 26 ноя 2012, 17:20
Medals: 2
1000 раздач! (1) Меценат №2 (1)

Re: По велению адской сестры / Shinmai Maou no Testament (Сайто Хисаси) [TV] [12 из 12] [Без хардсаба] [JAP+SUB] [2015 г., экшн, сёнэн, фэнтези, комедия, этти, гарем, романтика, приключения, BDRip] [720p]

Сообщение Фаромир брат » 07 июл 2015, 22:33

все серии
Аватара пользователя

Супермодератор
Супермодератор
 
Раздал: 24.34 ТБ
Скачал: 1.72 ТБ
Ратио: 20.884
Сообщения: 7936
Фото: 127
Зарегистрирован: 26 ноя 2012, 17:20
Medals: 2
1000 раздач! (1) Меценат №2 (1)


Вернуться в HD и BDrip

Кто сейчас на конференции

Зарегистрированные пользователи: нет зарегистрированных пользователей

Ресурс не предоставляет электронные версии произведений, а занимается лишь коллекционированием и каталогизацией ссылок, присылаемых и публикуемых на форуме нашими читателями. Если вы являетесь правообладателем какого-либо представленного материала и не желаете чтобы ссылка на него находилась в нашем каталоге, свяжитесь с нами и мы незамедлительно удалим её. Файлы для обмена на трекере предоставлены пользователями сайта, и администрация не несёт ответственности за их содержание. Просьба не заливать файлы, защищенные авторскими правами, а также файлы нелегального содержания!
cron