Яттерман ночи / Yoru no Yatterman (Ёсихара Тацуя) [TV] [12 из 12] [Без хардсаба] [JAP+SUB] [2015 г., приключения, HDTVRip] [720p] скачать торрент

Модератор: Модераторы аниме

  • Статистика раздачи
Размер: 4.96 ГБ   |  Зарегистрирован: 01 апр 2015, 17:56   |   .torrent скачан: 0 раз
Сидеров: 0  [ 0 байт/сек ]     Личеров: 0  [ 0 байт/сек ]  
Список файлов : Кто скачал : Раздают : Скачивают : Кто благодарил : История : Не раздающие : Запрашивали сидеров : Внешние трекеры 
  

Яттерман ночи / Yoru no Yatterman (Ёсихара Тацуя) [TV] [12 из 12] [Без хардсаба] [JAP+SUB] [2015 г., приключения, HDTVRip] [720p]

Сообщение Фаромир брат » 01 апр 2015, 17:56

Яттерман ночи / Yoru no Yatterman

Страна: Япония
Год выпуска: 2015 г.
Тип: TV
Жанр: Приключения
Продолжительность: 12 эп. по 25 мин
Русские субтитры: YakuSub Studio
Редактор: Harushechka
Оформление: Helge
Переводчик/Перевод песен: Nika_Elrik
Русские субтитры: Voltage Guy & Dotonbori Roma
Переводчик: Dotonbori Roma
Редактор: Voltage Guy

Режиссер:Ёсихара Тацуя

Студия:

Описание: Жила-была девочка, которая любила смотреть на океан. Как-то раз её мама серьёзно заболела, и отправилась девочка просить помощи за море, в далёкое королевство, где, по слухам, обитают борцы за справедливость Яттермэны. Но там её не пустили на порог, и мама девочки умерла без помощи, так и не услышав даже доброго слова.
Выше была присказка, а теперь сказка. В знаменитой банде воров Доронбо есть красавица по имени Дорондзё, которая вместе с двумя подручными Бояки и Тондзурой постоянно сталкивается в противостоянии с Яттермэнами, местными супергероями. Это их история. А ещё история двух подростков Гана и Аи, которым вскоре предстоит стать настоящими Яттермэнами.

Качество: HDTVRip | Равка: Leopard-Raws Формат: mp4 | Тип Видео: без хардсаба
Видео кодек: AVC
Видео: AVC, 8 bits, 1280x720, 1792 kbps, 23.976 fps, (16:9)
Аудио:
1. JP - AAC, 192 kbps, 48.0 KHz, 2 ch
01.The World Is Pitch-Black
02. We`ll Give Yatterman a Forehead Flicking
03. We`re Not Angels But We`ll Pretend to Be
04. Steamy Outdoor Hot Spring Trip
05. The Hurricane Dedicated to His Mother
06. The Flower That Blooms in Winter
07. Dream Sea
08. Kussie of Lake Kussharo-Dessharo
09. Abareshi Prison
10. The Twelve Yatter Guardian Gods` Encirclement
11. The Truth About Yatter Metropolis
12 The Dawn
Общее
Полное имя : D:\[Leopard-Raws]\[Leopard-Raws] Yoru no Yatterman\[Leopard-Raws] Yoru no Yatterman - 01 RAW (MX 1280x720 x264 AAC).mp4
Формат : MPEG-4
Профиль формата : Base Media
Идентификатор кодека : isom
Размер файла : 341 Мбайт
Продолжительность : 23 м.
Режим общего битрейта : Переменный
Общий поток : 1988 Кбит/сек
Дата кодирования : UTC 2015-01-11 19:15:08
Дата пометки : UTC 2015-01-11 19:15:08

Видео
Идентификатор : 1
Формат : AVC
Формат/Информация : Advanced Video Codec
Профиль формата : [email protected]
Параметр CABAC формата : Да
Параметр ReFrames формата : 4 кадра
Идентификатор кодека : avc1
Идентификатор кодека/Информация : Advanced Video Coding
Продолжительность : 23 м.
Битрейт : 1792 Кбит/сек
Максимальный битрейт : 13,5 Мбит/сек
Ширина : 1280 пикселей
Высота : 720 пикселей
Соотношение сторон : 16:9
Режим частоты кадров : Постоянный
Частота кадров : 23,976 кадра/сек
Цветовое пространство : YUV
Субдискретизация насыщенности : 4:2:0
Битовая глубина : 8 бит
Тип развёртки : Прогрессивная
Бит/(Пиксели*Кадры) : 0.081
Размер потока : 308 Мбайт (90%)
Заголовок : 264:[email protected]
Библиотека кодирования : x264 core 129 r2245+729M 1a52e03
Настройки программы : cabac=1 / ref=4 / deblock=1:1:-1 / analyse=0x3:0x113 / me=umh / subme=9 / psy=1 / fade_compensate=0.00 / psy_rd=1.00:0.00 / mixed_ref=1 / me_range=24 / chroma_me=1 / trellis=2 / 8x8dct=1 / cqm=0 / deadzone=21,11 / fast_pskip=1 / chroma_qp_offset=-2 / threads=8 / lookahead_threads=1 / sliced_threads=0 / nr=0 / decimate=1 / interlaced=0 / bluray_compat=0 / constrained_intra=0 / fgo=0 / bframes=9 / b_pyramid=2 / b_adapt=2 / b_bias=0 / direct=1 / weightb=1 / open_gop=0 / weightp=2 / keyint=240 / keyint_min=24 / scenecut=40 / intra_refresh=0 / rc=crf / mbtree=0 / crf=18.5 / qcomp=0.72 / qpmin=0 / qpmax=69 / qpstep=4 / ip_ratio=1.40 / pb_ratio=1.30 / aq=1:0.85
Дата кодирования : UTC 2015-01-11 19:15:08
Дата пометки : UTC 2015-01-11 19:15:12
Основные цвета : BT.709
Характеристики трансфера : BT.709
Коэффициенты матрицы : BT.709

Аудио
Идентификатор : 2
Формат : AAC
Формат/Информация : Advanced Audio Codec
Профиль формата : LC
Идентификатор кодека : 40
Продолжительность : 23 м.
Вид битрейта : Переменный
Битрейт : 192 Кбит/сек
Максимальный битрейт : 225 Кбит/сек
Каналы : 2 канала
Расположение каналов : Front: L R
Частота : 48,0 КГц
Метод сжатия : С потерями
Размер потока : 32,9 Мбайт (10%)
Язык : Japanese
Дата кодирования : UTC 2015-01-11 14:29:13
Дата пометки : UTC 2015-01-11 19:15:12


Обновите торент файл, добавлена 11-12я серия
   
Торрент: Зарегистрирован [01 апр 2015, 17:56] Скачать торрент
Скачать торрент
[ Размер 16.42 КБ / Просмотров 170 ]

Статус:
 
Приватный: Нет (DHT включён)
Размер: 4.96 ГБ (5 327 314 897 байт)
   
Аватара пользователя

Супермодератор
Супермодератор
 
Раздал: 24.34 ТБ
Скачал: 1.72 ТБ
Ратио: 20.884
Сообщения: 7936
Фото: 127
Зарегистрирован: 26 ноя 2012, 17:20
Medals: 2
1000 раздач! (1) Меценат №2 (1)

Вернуться в HD и BDrip

Кто сейчас на конференции

Зарегистрированные пользователи: нет зарегистрированных пользователей

Ресурс не предоставляет электронные версии произведений, а занимается лишь коллекционированием и каталогизацией ссылок, присылаемых и публикуемых на форуме нашими читателями. Если вы являетесь правообладателем какого-либо представленного материала и не желаете чтобы ссылка на него находилась в нашем каталоге, свяжитесь с нами и мы незамедлительно удалим её. Файлы для обмена на трекере предоставлены пользователями сайта, и администрация не несёт ответственности за их содержание. Просьба не заливать файлы, защищенные авторскими правами, а также файлы нелегального содержания!
cron