Трусливый Велосипедист / Yowamushi Pedal (Набэсима Осаму) [TV] [38 из 38] [Без хардсаба] [JAP+SUB] [2013 г., спорт, HDTVRip] [720p] скачать торрент

Модератор: Модераторы аниме

  • Статистика раздачи
Размер: 20.17 ГБ   |  Зарегистрирован: 27 фев 2015, 22:08   |   .torrent скачан: 1 раз
Сидеров: 1  [ 0 байт/сек ]     Личеров: 0  [ 0 байт/сек ]  
Список файлов : Кто скачал : Раздают : Скачивают : Кто благодарил : История : Не раздающие : Запрашивали сидеров : Внешние трекеры 
  

Трусливый Велосипедист / Yowamushi Pedal (Набэсима Осаму) [TV] [38 из 38] [Без хардсаба] [JAP+SUB] [2013 г., спорт, HDTVRip] [720p]

Сообщение Фаромир брат » 27 фев 2015, 22:08

Трусливый Велосипедист / Yowamushi Pedal

Страна: Япония
Год выпуска: 2013 г.
Жанр: спорт
Тип: TV
Продолжительность: 38 эп., 25 мин.
Режиссер: Набэсима Осаму
Снято по манге: Yowamushi Pedal
Автор оригинала: Ватанабэ Ватару
Выпуск: c 08.10.2013
Трансляция в 01:35 [ночной сеанс] на TV Tokyo
Студия:

Описание: Отаку Сакамичи Онода только поступил в старшую школу и хочет присоединиться к клубу Аниме. В средней школе у него небыло друзей, с которыми он мог поговорить об аниме, играх, Акихабаре и прочих атрибутах отаку, и он надеется найти друзей в клубе Аниме, но обнаруживает, что он закрыт. Для возраждения клуба он пытается найти ещё четверых участников.

Молодой велосипедист Шунске Имаидзуми, во время тренеровки, встречает парня (Оноду), который штурмует крутой подъём на простеньком велосипеде.

Шоссейный велосипедист Шокичи Наруко, во время поиска модели Гандама для своего брата, встречает в Акихабаре Оноду, который привлекает внимание своими навыками езды на велосипеде. Далее Наруко и Имаидзуми пытаются уговорить Оноду вступить в велосипедный клуб, но вступит ли он?

World Art

Качество: HDTVRip
Тип релиза: Без хардсаба
Формат видео: MP4
Наличие линковки: Нет
Энкод: Zero-Raws
Видео: AVC, 8 bit, 1280x720, ~2421 kbps, 23.976 fps
Аудио: JP, AAC, 2ch, ~189 kbps, 48 kHz (в составе контейнера) [Original]
Субтитры 1: ASS, внешним файлом, русские (01-02)
Перевод: AoZaki
Субтитры 2: ASS, внешним файлом, русские (01-38)
Перевод: Hikari no Tenshi
Оформление, перевод песен: Nika_Elrik
Редактор: Aero
Общее
Полное имя : D:\Yowamushi Pedal [720p]\Yowamushi Pedal 01 [720p].mp4
Формат : MPEG-4
Профиль формата : Base Media
Идентификатор кодека : isom
Размер файла : 452 Мбайт
Продолжительность : 24 м.
Режим общего битрейта : Переменный
Общий поток : 2614 Кбит/сек
Дата кодирования : UTC 2013-10-09 01:04:41
Дата пометки : UTC 2013-10-09 01:04:41

Видео
Идентификатор : 1
Формат : AVC
Формат/Информация : Advanced Video Codec
Профиль формата : [email protected]
Параметр CABAC формата : Да
Параметр ReFrames формата : 4 кадра
Идентификатор кодека : avc1
Идентификатор кодека/Информация : Advanced Video Coding
Продолжительность : 24 м.
Битрейт : 2421 Кбит/сек
Максимальный битрейт : 15,6 Мбит/сек
Ширина : 1280 пикселей
Высота : 720 пикселей
Соотношение сторон : 16:9
Режим частоты кадров : Постоянный
Частота кадров : 23,976 кадра/сек
Цветовое пространство : YUV
Субдискретизация насыщенности : 4:2:0
Битовая глубина : 8 бит
Тип развёртки : Прогрессивная
Бит/(Пиксели*Кадры) : 0.110
Размер потока : 418 Мбайт (93%)
Библиотека кодирования : x264 core 133 r2334 a3ac64b
Настройки программы : cabac=1 / ref=3 / deblock=1:0:0 / analyse=0x3:0x113 / me=hex / subme=7 / psy=1 / psy_rd=1.00:0.00 / mixed_ref=1 / me_range=16 / chroma_me=1 / trellis=1 / 8x8dct=1 / cqm=0 / deadzone=21,11 / fast_pskip=1 / chroma_qp_offset=-2 / threads=12 / lookahead_threads=2 / sliced_threads=0 / nr=0 / decimate=1 / interlaced=0 / bluray_compat=0 / constrained_intra=0 / bframes=3 / b_pyramid=2 / b_adapt=1 / b_bias=0 / direct=1 / weightb=1 / open_gop=0 / weightp=2 / keyint=250 / keyint_min=23 / scenecut=40 / intra_refresh=0 / rc_lookahead=40 / rc=crf / mbtree=1 / crf=19.5 / qcomp=0.60 / qpmin=0 / qpmax=69 / qpstep=4 / ip_ratio=1.40 / aq=1:1.00
Дата кодирования : UTC 2013-10-09 00:43:20
Дата пометки : UTC 2013-10-09 01:04:42

Аудио
Идентификатор : 2
Формат : AAC
Формат/Информация : Advanced Audio Codec
Профиль формата : LC
Идентификатор кодека : 40
Продолжительность : 24 м.
Вид битрейта : Переменный
Битрейт : 192 Кбит/сек
Максимальный битрейт : 198 Кбит/сек
Каналы : 2 канала
Расположение каналов : Front: L R
Частота : 48,0 КГц
Метод сжатия : С потерями
Размер потока : 32,6 Мбайт (7%)
Заголовок : aac#trackID=1:[email protected]
Язык : Japanese
Дата кодирования : UTC 2013-10-09 01:04:42
Дата пометки : UTC 2013-10-09 01:04:42
File: D:\Yowamushi Pedal 01 [720p].mp4
Duration: 00:24:10 (1449.92)
Track #1: video
lang: Unknown (1)
codc: avc1 -> H264/AVC (22)
reso: 1280x720 -> 16:9
fram: 23.976 fps
rate: 2421 kbps (2421.01)
dura: 00:24:10 (1449.91)
size: 0.00 B (0)
Track #2: audio (aac#trackID=1:[email protected])
lang: ja -> Japanese (2)
codc: A_AAC/MPEG4/LC -> AAC (9)
chan: 2 -> Stereo
samp: 48000 Hz
rate: 189 kbps (188.63)
dura: 00:24:10 (1449.92)
size: 0.00 B (0)
Sizes: (check sanity)
disk: 451.73 MB (473674861)
trac: 0.00 B (0) [based on track size]
bitr: 451.06 MB (472966392) [based on bitrate]
tdif: 451.73 MB (473674861) 100.00%
bdif: 691.86 KB (708468) 0.14%
01. Because I Can Go to Akiba for Free
02. To Recruit More Members
03. I Don`t Have Any Friends
04. Naruko Shoukichi
05. The Souhoku High School Bicycle Racing Team
06. Welcoming Race
07. I Want to Catch Up!
08. Sprint Climb!!
09. Full Power vs Full Power
10. Peak Spider
11. Human Bullet Train!
12. First Day of Camp!
13. Imaizumi and Naruko`s 1000km
14. Reunion at Dawn
15. Strategy
16. Breakthrough
17. Onoda in Last Place
18. All Out Battle
19. A New Start
20. Manami Sangaku
21. Snake of the Stone Path
22. The Inter-High Begins
23. Top Sprinter!
24. Trembling Izumida
25. Loss
26. I Can See the Sky
27. Toudou, God of the Mountains
28. 100 Man Barrier
29. The Summit
30. Arakita and Imaizumi
31. The Strong Three
32. Night of Hope
33. You Are the Princess
34. Shinkai Hayato
35. The Winner
36. Strongest and Fastest
37. Passing the Crown
38. The Soul of Sohoku
   
Торрент: Зарегистрирован [27 фев 2015, 22:08] За каждые 2 ГБ. аплоада (сидирования) этого торрента начисляется бонус: 0.001 Золотая раздача - Скачанное не учитывается на 100% Скачать торрент
Скачать торрент
[ Размер 111.15 КБ / Просмотров 54 ]

Статус:
 
Приватный: Нет (DHT включён)
Размер: 20.17 ГБ (21 659 775 831 байт)
   
Аватара пользователя

Супермодератор
Супермодератор
 
Раздал: 24.34 ТБ
Скачал: 1.72 ТБ
Ратио: 20.884
Сообщения: 7936
Фото: 127
Зарегистрирован: 26 ноя 2012, 17:20
Medals: 2
1000 раздач! (1) Меценат №2 (1)

Вернуться в HD и BDrip

Кто сейчас на конференции

Зарегистрированные пользователи: нет зарегистрированных пользователей

Ресурс не предоставляет электронные версии произведений, а занимается лишь коллекционированием и каталогизацией ссылок, присылаемых и публикуемых на форуме нашими читателями. Если вы являетесь правообладателем какого-либо представленного материала и не желаете чтобы ссылка на него находилась в нашем каталоге, свяжитесь с нами и мы незамедлительно удалим её. Файлы для обмена на трекере предоставлены пользователями сайта, и администрация не несёт ответственности за их содержание. Просьба не заливать файлы, защищенные авторскими правами, а также файлы нелегального содержания!
cron