ДРАМАтическое Убийство / DRAMAtical Murder [TV] [12 из 12] [Без хардсаба/Полухардсаб] [RUS(int), JAP] [2014 г., Экшен, Фантастика, Психологическое, HDTVRip] [720p] скачать торрент

Модератор: Модераторы аниме

  • Статистика раздачи
Размер: 4.47 ГБ   |  Зарегистрирован: 31 янв 2015, 20:29   |   .torrent скачан: 1 раз
Сидеров: 0  [ 0 байт/сек ]     Личеров: 0  [ 0 байт/сек ]  
Список файлов : Кто скачал : Раздают : Скачивают : Кто благодарил : История : Не раздающие : Запрашивали сидеров : Внешние трекеры 
  

ДРАМАтическое Убийство / DRAMAtical Murder [TV] [12 из 12] [Без хардсаба/Полухардсаб] [RUS(int), JAP] [2014 г., Экшен, Фантастика, Психологическое, HDTVRip] [720p]

Сообщение Фаромир брат » 31 янв 2015, 20:29

ДРАМАтическое Убийство / DRAMAtical Murder

Страна: Япония
Год выпуска: 2014 г.
Жанр: Экшен, Фантастика, Психологическое
Тип: TV
Продолжительность: 12 эп. ~25 мин. серия
Режиссер: Миура Кадзуя
Студия: NAZ

Описание: Далекое будущее. Остров Мидориджима. Изолированное общество с полной автономией. Казалось бы, рай на земле, но и здесь не все гладко. Большая часть населения живет в Старом Жилом Квартале, в то время как сильные мира сего отделились от обывателей огромной стеной Платиновой Тюрьмы. За ней — идеальная жизнь, все виды развлечений и богатство. По эту же сторону стены трудовые будни, разгул преступности и зреющий бунт.

В самых темных переулках Жилого Квартала рождается на свет "Райм", виртуальный файтинг, который в мгновение ока становится дико популярным среди жителей. Все, что нужно для участия, — наличие "Помощника", робота с искусственным интеллектом.

Главный герой, Аоба спокойно проживает свои будни: делит дом с горячо любимой бабушкой, работает в секонд-хенде, время от времени пересекается со своими многочисленными знакомыми и лишь иногда страдает от сильных мигреней. В отличие от большинства своих сверстников, Аоба не только не принимает участие в ежедневных сражениях Райма, но еще и не принадлежит ни к одной из банд города. И так бы все и продолжилось, не начни в Жилом Квартале исчезать без причины люди. Чтобы вернуться к прежнему мирному течению жизни, Аобе предстоит влезть в самый эпицентр таинственных событий и постараться не потерять себя.

Качество: HDTVRip
Тип релиза: Полухардсаб (надписи) (в некоторых эпизодах)
Формат видео: MP4
Релиз/Автор рипа: Leopard-Raws / часть эпизодов плохой реэнкод
Совместимость с бытовыми плеерами: Нет
Видео: AVC, 8 bit, 1280x720, 1 867 Kbps, 23.976 fps
Аудио 1: AAC, 192 Kbps, 48 KHz, 2ch Язык Японский
Аудио 2: MP3, 192 Kbps, 44.1 KHz, 2ch Язык Русский (в составе контейнера) ; Озвучка: Двухголосая (1-10 серии): Krondir(м.), Bacardi(ж.); Трехголосая (11-12 серии): Krondir(м.), Bacardi(ж.), Madao(м.)
Код: Выделить всё
General
Complete name                            : D:\Торрент-раздачи\DRAMAtical Murder\[Leopard-Raws] Dramatical Murder - 01 RAW (TX 1280x720 x264 AAC).mp4
Format                                   : MPEG-4
Format profile                           : Base Media
Codec ID                                 : isom
File size                                : 392 MiB
Duration                                 : 24mn 45s
Overall bit rate mode                    : Variable
Overall bit rate                         : 2 214 Kbps
Encoded date                             : UTC 2014-09-29 14:43:38
Tagged date                              : UTC 2014-09-29 14:43:38
Writing application                      : Yamb 2.1.0.0 [[url=http://yamb.unite-video.com]]http://yamb.unite-video.com][/url]

Video
ID                                       : 1
Format                                   : AVC
Format/Info                              : Advanced Video Codec
Format profile                           : [email protected]
Format settings, CABAC                   : Yes
Format settings, ReFrames                : 4 frames
Codec ID                                 : avc1
Codec ID/Info                            : Advanced Video Coding
Duration                                 : 24mn 44s
Bit rate                                 : 1 825 Kbps
Maximum bit rate                         : 15.7 Mbps
Width                                    : 1 280 pixels
Height                                   : 720 pixels
Display aspect ratio                     : 16:9
Frame rate mode                          : Constant
Frame rate                               : 23.976 fps
Color space                              : YUV
Chroma subsampling                       : 4:2:0
Bit depth                                : 8 bits
Scan type                                : Progressive
Bits/(Pixel*Frame)                       : 0.083
Stream size                              : 323 MiB (82%)
Title                                    : 264
Writing library                          : x264 core 129 r2245+729M 1a52e03
Encoding settings                        : cabac=1 / ref=4 / deblock=1:1:-1 / analyse=0x3:0x113 / me=umh / subme=9 / psy=1 / fade_compensate=0.00 / psy_rd=1.00:0.00 / mixed_ref=1 / me_range=24 / chroma_me=1 / trellis=2 / 8x8dct=1 / cqm=0 / deadzone=21,11 / fast_pskip=1 / chroma_qp_offset=-2 / threads=8 / lookahead_threads=1 / sliced_threads=0 / nr=0 / decimate=1 / interlaced=0 / bluray_compat=0 / constrained_intra=0 / fgo=0 / bframes=9 / b_pyramid=2 / b_adapt=2 / b_bias=0 / direct=1 / weightb=1 / open_gop=0 / weightp=2 / keyint=240 / keyint_min=24 / scenecut=40 / intra_refresh=0 / rc=crf / mbtree=0 / crf=19.0 / qcomp=0.72 / qpmin=0 / qpmax=69 / qpstep=4 / ip_ratio=1.40 / pb_ratio=1.30 / aq=1:0.85
Encoded date                             : UTC 2014-07-07 02:32:43
Tagged date                              : UTC 2014-09-29 14:43:51
Color primaries                          : BT.709
Transfer characteristics                 : BT.709
Matrix coefficients                      : BT.709

Audio #1
ID                                       : 2
Format                                   : AAC
Format/Info                              : Advanced Audio Codec
Format profile                           : LC
Codec ID                                 : 40
Duration                                 : 24mn 45s
Bit rate mode                            : Variable
Bit rate                                 : 192 Kbps
Maximum bit rate                         : 228 Kbps
Channel(s)                               : 2 channels
Channel positions                        : Front: L R
Sampling rate                            : 48.0 KHz
Compression mode                         : Lossy
Stream size                              : 34.0 MiB (9%)
Language                                 : Japanese
Encoded date                             : UTC 2014-09-29 14:43:49
Tagged date                              : UTC 2014-09-29 14:43:51

Audio #2
ID                                       : 3
Format                                   : MPEG Audio
Format version                           : Version 1
Format profile                           : Layer 3
Codec ID                                 : 6B
Duration                                 : 24mn 44s
Duration_FirstFrame                      : -17ms
Bit rate mode                            : Variable
Bit rate                                 : 192 Kbps
Maximum bit rate                         : 196 Kbps
Channel(s)                               : 2 channels
Sampling rate                            : 44.1 KHz
Compression mode                         : Lossy
Stream size                              : 34.0 MiB (9%)
Language                                 : Russian
Encoded date                             : UTC 2014-09-29 14:43:50
Tagged date                              : UTC 2014-09-29 14:43:51
1. Логин
2. Взлом
3. Предчувствие
4. Исчезновение
5. Ошибка
6. Откровение
7. Расстояние
8. Ответ
9. Чистый
10. Вера
11. Мастер
12. Заря
Сэмпл озвучки rghost не работал, потому ЯДиск

PS. Раздача обновлена, обновите торрент-файл.
   
Торрент: Зарегистрирован [31 янв 2015, 20:29] Скачать торрент
Скачать торрент
[ Размер 13.07 КБ / Просмотров 49 ]

Статус:
 
Приватный: Нет (DHT включён)
Размер: 4.47 ГБ (4 799 487 695 байт)
   
Аватара пользователя

Супермодератор
Супермодератор
 
Раздал: 24.34 ТБ
Скачал: 1.72 ТБ
Ратио: 20.884
Сообщения: 7936
Фото: 127
Зарегистрирован: 26 ноя 2012, 17:20
Medals: 2
1000 раздач! (1) Меценат №2 (1)

Вернуться в HD и BDrip

Кто сейчас на конференции

Зарегистрированные пользователи: нет зарегистрированных пользователей

cron
Ресурс не предоставляет электронные версии произведений, а занимается лишь коллекционированием и каталогизацией ссылок, присылаемых и публикуемых на форуме нашими читателями. Если вы являетесь правообладателем какого-либо представленного материала и не желаете чтобы ссылка на него находилась в нашем каталоге, свяжитесь с нами и мы незамедлительно удалим её. Файлы для обмена на трекере предоставлены пользователями сайта, и администрация не несёт ответственности за их содержание. Просьба не заливать файлы, защищенные авторскими правами, а также файлы нелегального содержания!
cron