Второй размер, интим предлагать! / B Gata H Kei [01-12 из 12] (2010) BDRip 720p скачать торрент

Модератор: Модераторы аниме

  • Статистика раздачи
Размер: 5.6 ГБ   |  Зарегистрирован: 31 янв 2015, 14:22   |   .torrent скачан: 33 раз
Сидеров: 38  [ 0 байт/сек ]     Личеров: 2  [ 0 байт/сек ]  
Список файлов : Кто скачал : Раздают : Скачивают : Кто благодарил : История : Не раздающие : Запрашивали сидеров : Внешние трекеры 
  

Второй размер, интим предлагать! / B Gata H Kei [01-12 из 12] (2010) BDRip 720p

Сообщение Фаромир брат » 31 янв 2015, 14:22

Информация о фильме
Название: Второй размер, интим предлагать!
Оригинальное название: B Gata H Kei
Год выхода: 2010
Жанр: Комедия, романтика, этти, школа
Режиссер: Ямамото Юсукэ

О фильме:
15-летняя симпатичная девчонка по фамилии Ямада, поступив в старшую школу, озабочена очень важным вопросом - как потерять девственность и получить удовольствие? В тяжких раздумьях о вступлении во взрослую жизнь «освобожденная женщина Востока» решила, что ее первый партнер тоже обязан быть девственником, чтобы на равных приступить к волнующему и пугающему ритуалу и пройти его до логического конца. Ну а потом – хоть трава не расти, можно и сотню парней поменять… для расширения кругозора.

Трезво оценивая свои внешние данные и объем мужской школьной популяции, Ямада сочла, что проблемы если и будут, то только технические. Вскоре была выбрана первая жертва – одноклассник Такаси Косуда, паренек простой и добрый. Тут и начались сложности – намеков Косуда не понимает, а от попыток перейти к решительным действиям у самой Ямады просто «вышибает пробки», не помогают даже мудрые советы небесного интим-консультанта. Так что героев ждет долгий путь проб и ошибок, обретения опыта, учебы у друзей и близких. Но мы-то верим – у них все получится!
© Hollow, World Art
Страна: Япония
Студия: Hal Film Maker
Продолжительность: 12 серий по 25 мин.
Перевод:
любительский одноголосный - Ancord
любительский двухголосный - Трина Дубовицкая & Yukio
Субтитры:
английские - UTW
русские - StormHeart & Stan WarHammer

Сэмпл

Файл
Качество: BDRip
Видео: x264, 1280x720 (16:9), 23.976 fps, ~2343 Kbps, 0.106 bit/pixel
Звук:
JAP - AC3, 48,0 kHz, 16 bit, 2ch, CBR 320 kbps
RUS - AAC, 48,0 kHz, stereo, 2ch, VBR ~166 kbps [Ancord]
RUS - MP3, 48,0 kHz, stereo, 2ch, CBR 128 kbps [Трина Дубовицкая & Yukio]


Общее
Уникальный идентификатор : 247423820513672241116881907039462795511 (0xBA24183060E5C768AC956C949A08A8F7)
Полное имя : B Gata H Kei - 01 (BDRip 1280x720 x264).mkv
Формат : Matroska
Размер файла : 525 Мбайт
Продолжительность : 24 м.
Общий поток : 2973 Кбит/сек
Название фильма : B Gata H Kei BD - Episode 01
Дата кодирования : UTC 2011-11-29 11:56:36
Программа кодирования : mkvmerge v4.8.0 ('I Got The...') сборка от May 24 2011 03:12:58
Библиотека кодирования : libebml v1.2.0 + libmatroska v1.1.0
Обложка : Yes / Yes / Yes / Yes / Yes / Yes / Yes / Yes / Yes / Yes / Yes / Yes / Yes / Yes / Yes

Видео
Идентификатор : 1
Формат : AVC
Формат/Информация : Advanced Video Codec
Профиль формата : [email protected]
Параметр CABAC формата : Да
Параметр ReFrames формата : 8 кадров
Режим смешивания : Header stripping
Идентификатор кодека : V_MPEG4/ISO/AVC
Продолжительность : 24 м.
Номинальный битрейт : 2343 Кбит/сек
Ширина : 1280 пикс.
Высота : 720 пикс.
Соотношение сторон : 16:9
Частота кадров : 23,976 кадр/сек
Цветовое пространство : YUV
Подвыборка цветности : 4:2:0
Битовая глубина : 8 бит
Тип развёртки : Прогрессивная
Бит/(Пиксели*Кадры) : 0.106
Заголовок : H.264 BD 720p
Библиотека кодирования : x264 core 104 r1683 62997d6
Настройки программы : cabac=1 / ref=9 / deblock=1:-3:-2 / analyse=0x3:0x133 / me=umh / subme=10 / psy=1 / psy_rd=1.10:0.20 / mixed_ref=1 / me_range=24 / chroma_me=1 / trellis=2 / 8x8dct=1 / cqm=0 / deadzone=21,11 / fast_pskip=0 / chroma_qp_offset=-4 / threads=6 / sliced_threads=0 / nr=55 / decimate=1 / interlaced=0 / constrained_intra=0 / bframes=8 / b_pyramid=1 / b_adapt=2 / b_bias=0 / direct=3 / weightb=1 / open_gop=0 / weightp=2 / keyint=240 / keyint_min=24 / scenecut=25 / intra_refresh=0 / rc_lookahead=72 / rc=2pass / mbtree=1 / bitrate=2343 / ratetol=1.0 / qcomp=0.70 / qpmin=10 / qpmax=51 / qpstep=4 / cplxblur=20.0 / qblur=0.5 / vbv_maxrate=50000 / vbv_bufsize=40000 / ip_ratio=1.40 / aq=2:1.35 / nal_hrd=none
Язык : Japanese
Основные цвета : BT.709-5, BT.1361, IEC 61966-2-4, SMPTE RP177
Характеристики трансфера : BT.709-5, BT.1361
Коэффициенты матрицы : BT.709-5, BT.1361, IEC 61966-2-4 709, SMPTE RP177

Аудио #1
Идентификатор : 2
Формат : AAC
Формат/Информация : Advanced Audio Codec
Профиль формата : LC
Идентификатор кодека : A_AAC
Продолжительность : 24 м.
Каналы : 2 канала
Расположение каналов : Front: L R
Частота : 48,0 КГц
Метод сжатия : С потерями
Заголовок : Ancord
Язык : Russian

Аудио #2
Идентификатор : 3
Формат : MPEG Audio
Версия формата : Version 1
Профиль формата : Layer 3
Режим смешивания : Header stripping
Идентификатор кодека : A_MPEG/L3
Идентификатор кодека/Подсказка : MP3
Продолжительность : 24 м.
Вид битрейта : Постоянный
Битрейт : 128 Кбит/сек
Каналы : 2 канала
Частота : 48,0 КГц
Метод сжатия : С потерями
Размер потока : 22,6 Мбайт (4%)
Заголовок : Трина Дубовицкая & Yukio
Язык : Russian

Аудио #3
Идентификатор : 4
Формат : AC-3
Формат/Информация : Audio Coding 3
Расширение режима : CM (complete main)
Режим смешивания : Header stripping
Идентификатор кодека : A_AC3
Продолжительность : 24 м.
Вид битрейта : Постоянный
Битрейт : 320 Кбит/сек
Каналы : 2 канала
Расположение каналов : Front: L R
Частота : 48,0 КГц
Битовая глубина : 16 бит
Метод сжатия : С потерями
Размер потока : 56,5 Мбайт (11%)
Заголовок : AC3 2.0 320Kbps
Язык : Japanese

Текст #1
Идентификатор : 5
Формат : ASS
Идентификатор кодека : S_TEXT/ASS
Идентификатор кодека/Информация : Advanced Sub Station Alpha
Метод сжатия : Без потерь
Заголовок : StormHeart & Stan WarHammer
Язык : Russian

Текст #2
Идентификатор : 6
Формат : ASS
Идентификатор кодека : S_TEXT/ASS
Идентификатор кодека/Информация : Advanced Sub Station Alpha
Метод сжатия : Без потерь
Заголовок : UTW
Язык : English

Меню
00:00:00.000 : en:Prologue
00:01:12.990 : en:Opening
00:02:42.996 : en:Boy meets Girl ・ Please give me your "first time"!
00:12:17.987 : en:Super After School Plan! ・ For now shall we just kiss?
00:22:50.035 : en:Ending
00:24:20.000 : en:Preview

   
Торрент: Зарегистрирован [31 янв 2015, 14:22] За каждые 2 ГБ. аплоада (сидирования) этого торрента начисляется бонус: 0.001 Скачать торрент
Скачать торрент
[ Размер 29.39 КБ / Просмотров 62 ]

Статус:
 
Приватный: Нет (DHT включён)
Размер: 5.6 ГБ (6 017 830 549 байт)
   
Аватара пользователя

Супермодератор
Супермодератор
 
Раздал: 24.34 ТБ
Скачал: 1.72 ТБ
Ратио: 20.884
Сообщения: 7936
Фото: 127
Зарегистрирован: 26 ноя 2012, 17:20
Medals: 2
1000 раздач! (1) Меценат №2 (1)

Вернуться в HD и BDrip

Кто сейчас на конференции

Зарегистрированные пользователи: нет зарегистрированных пользователей

cron
Ресурс не предоставляет электронные версии произведений, а занимается лишь коллекционированием и каталогизацией ссылок, присылаемых и публикуемых на форуме нашими читателями. Если вы являетесь правообладателем какого-либо представленного материала и не желаете чтобы ссылка на него находилась в нашем каталоге, свяжитесь с нами и мы незамедлительно удалим её. Файлы для обмена на трекере предоставлены пользователями сайта, и администрация не несёт ответственности за их содержание. Просьба не заливать файлы, защищенные авторскими правами, а также файлы нелегального содержания!
cron