Фи Брейн: Загадка бога 3 / Phi Brain: Kami no Puzzle (Эндо Хиротака) [TV] [01-21 из 25] [Без хардсаба] [RUS(int), JAP+SUB] [2013 г., приключение, комедия, HDTVRip] скачать торрент

Модератор: Модераторы аниме

  • Статистика раздачи
Размер: 6.84 ГБ   |  Зарегистрирован: 23 окт 2014, 16:06   |   .torrent скачан: 1 раз
Сидеров: 0  [ 0 байт/сек ]     Личеров: 1  [ 0 байт/сек ]  
Список файлов : Кто скачал : Раздают : Скачивают : Кто благодарил : История : Не раздающие : Запрашивали сидеров : Внешние трекеры 
  

Фи Брейн: Загадка бога 3 / Phi Brain: Kami no Puzzle (Эндо Хиротака) [TV] [01-21 из 25] [Без хардсаба] [RUS(int), JAP+SUB] [2013 г., приключение, комедия, HDTVRip]

Сообщение Persona999 » 23 окт 2014, 16:07


Фи Брейн: Загадка бога 3 / Phi Brain: Kami no Puzzle TV3



Страна: Япония
Год выпуска: 2013 г.
Жанр: Комедия, приключения
Тип: TV
Продолжительность: ТВ (12 эп.), 25 мин.
Режиссер: Эндо Хиротака
Студия: Sunrise

Описание: Кайто сотоварищи обзаводятся новой проблемой разумеется связанной с головоломками. И решают-решают-решают... Продолжение первых двух сезонов, короче.



Качество: HDTVRip
Формат видео: AVI
Видео: XviD/704x396/23.976/1288kbpc
Аудио: AC-3, 48000Hz 192 kb/s , 2.0 Язык Русский (в составе контейнера) ; Озвучка: Persona99
Аудио 2: AC-3, 48000Hz 192 kb/s , 2.0 Язык Японский ; Озвучка 2: оригинал
Субтитры: внешние ass, srt. Язык: русский ; Переводчик/Оформление: Rena-chan[AniLibria]
Общее
Полное имя : G:\Phi Brain Kami no Puzzle 3\01_Phi Brain_TV-3_[Persona99](704x396.XviD).rus.jap.avi
Формат : AVI
Формат/Информация : Audio Video Interleave
Размер файла : 356 Мбайт
Продолжительность : 29 м.
Общий поток : 1686 Кбит/сек
Программа кодирования : VirtualDubMod 1.5.10.2 (build 2540/release)
Библиотека кодирования : VirtualDubMod build 2540/release

Видео
Идентификатор : 0
Формат : MPEG-4 Visual
Профиль формата : Advanced [email protected]
Параметр BVOP формата : 2
Параметр QPel формата : Нет
Параметр GMC формата : Без точки перехода
Параметр матрицы формата : Default (H.263)
Идентификатор кодека : XVID
Идентификатор кодека/Подсказка : XviD
Продолжительность : 29 м.
Битрейт : 1288 Кбит/сек
Ширина : 704 пикселя
Высота : 396 пикселей
Соотношение сторон : 16:9
Частота кадров : 23,976 кадра/сек
Цветовое пространство : YUV
Субдискретизация насыщенности : 4:2:0
Битовая глубина : 8 бит
Тип развёртки : Прогрессивная
Метод сжатия : С потерями
Бит/(Пиксели*Кадры) : 0.193
Размер потока : 272 Мбайт (76%)
Библиотека кодирования : XviD 1.2.1 (UTC 2008-12-04)

Аудио #1
Идентификатор : 1
Формат : AC-3
Формат/Информация : Audio Coding 3
Расширение режима : CM (complete main)
Параметр Endianness формата : Big
Идентификатор кодека : 2000
Продолжительность : 29 м.
Вид битрейта : Постоянный
Битрейт : 192 Кбит/сек
Каналы : 2 канала
Расположение каналов : Front: L R
Частота : 48,0 КГц
Битовая глубина : 16 бит
Метод сжатия : С потерями
Размер потока : 40,5 Мбайт (11%)
Выравнивание : Разделение по промежуткам
Продолжительность промежутка : 42 мс. (1,00 видеокадр)
Время предзагрузки промежутка : 500 мс.

Аудио #2
Идентификатор : 2
Формат : AC-3
Формат/Информация : Audio Coding 3
Расширение режима : CM (complete main)
Параметр Endianness формата : Big
Идентификатор кодека : 2000
Продолжительность : 29 м.
Вид битрейта : Постоянный
Битрейт : 192 Кбит/сек
Каналы : 2 канала
Расположение каналов : Front: L R
Частота : 48,0 КГц
Битовая глубина : 16 бит
Метод сжатия : С потерями
Размер потока : 40,5 Мбайт (11%)
Выравнивание : Разделение по промежуткам
Продолжительность промежутка : 42 мс. (1,00 видеокадр)
Время предзагрузки промежутка : 500 мс.
   
Торрент: Зарегистрирован [23 окт 2014, 16:06] За каждые 2 ГБ. аплоада (сидирования) этого торрента начисляется бонус: 0.001 Скачать торрент
Скачать торрент
[ Размер 40.01 КБ / Просмотров 27 ]

Статус:
 
Приватный: Нет (DHT включён)
Размер: 6.84 ГБ (7 348 536 078 байт)
   
Аватара пользователя
Прохожий
Прохожий
 
Раздал: 0 байт
Скачал: 0 байт
Ратио: None.
Сообщения: 7
Зарегистрирован: 18 окт 2014, 15:45
Откуда: Москва

  • Похожие торренты
    Ответы
    Просмотры
    Последнее сообщение

Вернуться в HD и BDrip

Кто сейчас на конференции

Зарегистрированные пользователи: нет зарегистрированных пользователей

cron
Ресурс не предоставляет электронные версии произведений, а занимается лишь коллекционированием и каталогизацией ссылок, присылаемых и публикуемых на форуме нашими читателями. Если вы являетесь правообладателем какого-либо представленного материала и не желаете чтобы ссылка на него находилась в нашем каталоге, свяжитесь с нами и мы незамедлительно удалим её. Файлы для обмена на трекере предоставлены пользователями сайта, и администрация не несёт ответственности за их содержание. Просьба не заливать файлы, защищенные авторскими правами, а также файлы нелегального содержания!
cron