Тетрадь Смерти / Death Note (Араки Тэцуро) [01-11 из 37] [2006, Детектив, Криминал, Драма, мистика, HDTVRip] 720p скачать торрент

Модератор: Модераторы аниме

  • Статистика раздачи
Размер: 5.19 ГБ   |  Зарегистрирован: 18 окт 2014, 23:31   |   .torrent скачан: 6 раз
Сидеров: 7  [ 0 байт/сек ]     Личеров: 1  [ 0 байт/сек ]  
Список файлов : Кто скачал : Раздают : Скачивают : Кто благодарил : История : Не раздающие : Запрашивали сидеров : Внешние трекеры 
  

Тетрадь Смерти / Death Note (Араки Тэцуро) [01-11 из 37] [2006, Детектив, Криминал, Драма, мистика, HDTVRip] 720p

Сообщение 22alias11 » 18 окт 2014, 23:33

Тетрадь Смерти / Death Note



Информация о фильме
Русское название: Тетрадь смерти
Оригинальное название: Death Note
Страна: Япония
Студия: Madhouse
Год выпуска: 2006
Жанр: Детектив, Криминал, Драма, мистика
Режиссер: Араки Тэцуро


О фильме:
Тетрадь смерти (яп. デスノート Дэсу Но:то, Death Note) — ставшая культовой японская манга, придуманная Цугуми Обой и нарисованная Такэси Обатой, а также выпущенные на её основе анимационные сериал и фильмы, игровые фильмы, лайт-новел и видеоигры.
В основу сюжета легла философская идея: «Можно ли добиться блага для одних людей путем убийств других?». Автор придумал оригинальную историю, в которой отражается суть того, что бы могло быть с миром, если бы человек мог безнаказанно убивать одних людей, чтобы сделать лучше жизнь других. Цугуми Ооба рассматривает реакцию как самого убийцы, его мотивы и желания, так и реакцию общества на действия убийцы.

Сюжет:
Лайт Ягами — лучший ученик Японии, сын полицейского, который с детства хотел пойти по стопам отца, чтобы искоренить преступность не только в Японии, но и во всём мире.
Однажды, когда одному из синигами (богов смерти) Рюку стало скучно, он подкинул Тетрадь смерти — совершенное орудие убийства — на Землю. Лайту, нашедшему тетрадь, выпал случай изменить мир быстро и безнаказанно. Он стал вершить своё правосудие: убивать преступников.
Торжество Лайта над преступностью было недолгим, ибо совсем скоро странными смертями преступников заинтересовался Интерпол и начал расследование, подключив к нему не только весь мир, но и самого востребованного детектива, всегда скрывающегося под псевдонимом L (Эл). L начинает настоящую войну с Лайтом, которому в это время уже дали прозвище Кира (латиницей яп. キラ, Kira — убийца). Противостояние гениев — лучшего ученика Японии с одной стороны и лучшего детектива в мире с другой — начинает историю «Тетради смерти».
Лайт не может совершать ошибки, потому что если его поймают, он не сможет вершить своё правосудие и получит смертный приговор. Его оппонент тоже не может сделать ни одной ошибки, потому что в противном случае Кира убьёт его. В это противостояние, к тому же, вмешиваются сверхъестественные силы в лице богов смерти, а также другие последователи Киры и сторонники L.

Техданные
Качество видео: HDTVRip 720p
Видеокодек: H.263
Формат: MKV
Битрейт видео: ~2748 Kbps
Размер кадра: 1280x720
Аудиокодек: AC3
Битрейт аудио: 192 kb/s & 128 kbps
Аудио #1: Русский ( 48 kHz, AC3 Dolby Digital, 2 channels, ~192 kbps) — Профессиональный многоголосый закадровый [Mega-Anime]
Аудио #2: Японский ( 44.1 KHz, AC3 Dolby Digital, 2 channels, ~224 kbps) — Оригинал
Продолжительность: 1-11 из 37 серий по ~00:25:00
Перевод: Профессиональный многоголосый закадровый

Автор перевода: Mega-Anime
Скачать: Сэмпл#1 и Сэмпл#2
01 - Перерождение
02 - Конфронтация
03 - Сделка
04 - Преследование
05 - Тактика
06 - Разрыв
07 - Облачное небо
08 - Взгляд
09 - Контакт
10 - Подозрение
11 - Вторжение

General
Unique ID : 245640722891242418850205107286841631189 (0xB8CCAEB04E5A6E699EFAEC2B125221D5)
Complete name : E:Death Note [720p] (Mega-Anime)�1. Перерождение.mkv
Format : Matroska
Format version : Version 4 / Version 2
File size : 525 MiB
Duration : 22mn 45s
Overall bit rate : 3 225 Kbps
Movie name : Death Note Episode 1 [720p] (Mega-Anime) © SDIncorporation
Encoded date : UTC 2014-10-18 13:15:30
Writing application : mkvmerge v7.2.0 ('On Every Street') 64bit built on Sep 13 2014 15:52:10
Writing library : libebml v1.3.0 + libmatroska v1.4.1
DURATION : 00:22:45.786000000
NUMBER_OF_FRAMES : 39213
NUMBER_OF_BYTES : 38242008
_STATISTICS_WRITING_APP : mkvmerge v7.2.0 ('On Every Street') 64bit built on Sep 13 2014 15:52:10
_STATISTICS_WRITING_DATE_UTC : 2014-10-18 13:15:30
_STATISTICS_TAGS : BPS DURATION NUMBER_OF_FRAMES NUMBER_OF_BYTES

Video
ID : 1
Format : MPEG-4 Visual
Format profile : [email protected]
Format settings, BVOP : No
Format settings, QPel : No
Format settings, GMC : No warppoints
Format settings, Matrix : Default (H.263)
Codec ID : V_MS/VFW/FOURCC / DX50
Codec ID/Hint : DivX 5
Duration : 22mn 45s
Bit rate : 2 745 Kbps
Width : 1 280 pixels
Height : 720 pixels
Display aspect ratio : 16:9
Frame rate mode : Constant
Frame rate : 30.000 fps
Color space : YUV
Chroma subsampling : 4:2:0
Bit depth : 8 bits
Scan type : Progressive
Compression mode : Lossy
Bits/(Pixel*Frame) : 0.099
Stream size : 447 MiB (85%)
Writing library : Lavc52.58.0
Default : Yes
Forced : No

Audio #1
ID : 2
Format : AC-3
Format/Info : Audio Coding 3
Mode extension : CM (complete main)
Format settings, Endianness : Big
Codec ID : A_AC3
Duration : 22mn 45s
Bit rate mode : Constant
Bit rate : 192 Kbps
Channel(s) : 2 channels
Channel positions : Front: L R
Sampling rate : 48.0 KHz
Bit depth : 16 bits
Compression mode : Lossy
Delay relative to video : -33ms
Stream size : 31.3 MiB (6%)
Title : Mega-Anime
Language : Russian
Default : Yes
Forced : No

Audio #2
ID : 3
Format : AC-3
Format/Info : Audio Coding 3
Mode extension : CM (complete main)
Format settings, Endianness : Big
Codec ID : A_AC3
Duration : 22mn 45s
Bit rate mode : Constant
Bit rate : 224 Kbps
Channel(s) : 2 channels
Channel positions : Front: L R
Sampling rate : 44.1 KHz
Bit depth : 16 bits
Compression mode : Lossy
Delay relative to video : -33ms
Stream size : 36.5 MiB (7%)
Title : Japanese
Language : Japanese
Default : No
Forced : No

   
Торрент: Зарегистрирован [18 окт 2014, 23:31] За каждые 2 ГБ. аплоада (сидирования) этого торрента начисляется бонус: 0.001 Скачать торрент
Скачать торрент
[ Размер 14.14 КБ / Просмотров 29 ]

Статус:
 
Приватный: Нет (DHT включён)
Размер: 5.19 ГБ (5 573 129 859 байт)
   
Аватара пользователя
Serial R.G.
Serial R.G.
 
Раздал: 2.82 ТБ
Скачал: 677.38 ГБ
Ратио: 5.302
Сообщения: 256
Фото: 1
Зарегистрирован: 10 сен 2012, 21:57
ТегиТетрадь, Смерти, Death, Note,

Вернуться в HD и BDrip

Кто сейчас на конференции

Зарегистрированные пользователи: нет зарегистрированных пользователей

Ресурс не предоставляет электронные версии произведений, а занимается лишь коллекционированием и каталогизацией ссылок, присылаемых и публикуемых на форуме нашими читателями. Если вы являетесь правообладателем какого-либо представленного материала и не желаете чтобы ссылка на него находилась в нашем каталоге, свяжитесь с нами и мы незамедлительно удалим её. Файлы для обмена на трекере предоставлены пользователями сайта, и администрация не несёт ответственности за их содержание. Просьба не заливать файлы, защищенные авторскими правами, а также файлы нелегального содержания!
cron