Ван-Пис / One Piece (Уда Коносукэ) [TV] [601-666 из ?] [без хардсаба] [RUS(int),JAP+SUB] [1999 г., приключения, комедия, фэнтези, сёнэн, HDTVRip] [720p] скачать торрент

Модератор: Модераторы аниме

  • Статистика раздачи
Размер: 25.7 ГБ   |  Зарегистрирован: 23 окт 2014, 15:59   |   .torrent скачан: 1 раз
Сидеров: 0  [ 0 байт/сек ]     Личеров: 0  [ 0 байт/сек ]  
Список файлов : Кто скачал : Раздают : Скачивают : Кто благодарил : История : Не раздающие : Запрашивали сидеров : Внешние трекеры 
  

Ван-Пис / One Piece (Уда Коносукэ) [TV] [601-666 из ?] [без хардсаба] [RUS(int),JAP+SUB] [1999 г., приключения, комедия, фэнтези, сёнэн, HDTVRip] [720p]

Сообщение Persona999 » 18 окт 2014, 18:59

Ван-Пис / One Piece


Год выпуска: 1999
Страна: япония
Жанр: приключения, Комедия, фэнтези, сёнэн
Продолжительность: ТВ (>456 эп. + 5 спэшлов), 24 мин.
Озвучание: Одноголосый, Persona99
Перевод: Kage Project
Русские субтитры: есть
ХардСаб: Нет
Две звуковые дорожки:
1. рyсский закадровый.
2. оригинал.яп.

Режиссер: Уда Коносукэ

Описание: Это было во времена, когда пираты были владыками морей.
Множество кораблей бороздили океаны, сражаясь между собой, в поисках величайшего в мире сокровища,
имя которому One Piece. Эта благодать была собрана за долгие годы приключений легендарным
пиратским капитаном, Золотым Роджером, который по праву заслужил титул Короля Пиратов.
Наш главный герой - простой парнишка по имени Манки Д. Луффи, который всегда хотел стать пиратом.
Однажды, он случайно съел один из Дьявольских фруктов, которые даруют людям нечеловеческие возможности,
и стал резиновым человеком - лучше увидеть самим.

Качество: HDTVRip[OPC-Raws]
Формат: MKV
Видео кодек: H.264
Аудио кодек: AAC
Видео: x264/1280x720/ VBR ~1803 Кбит/сек fps 23.976 8 bit
Аудио: RU(int)-AC3 2 канала 48,0 КГц VBR 157 kb/s. JAP - AC3 2 канала 48,0 КГц VBR 127 kb/s
Общее
Уникальный идентификатор : 207639543167946006393636422945913310043 (0x9C35EBDFBAF468FDB38901575C560B5B)
Полное имя : E:\One Piece [1280x720]\601-One_Piece_TV_[Persona99](1280x720).rus.jap.mkv
Формат : Matroska
Версия формата : Version 2
Размер файла : 404 Мбайт
Продолжительность : 23 м.
Общий поток : 2410 Кбит/сек
Дата кодирования : UTC 2013-06-23 22:30:20
Программа кодирования : mkvmerge v3.4.0 ('Rapunzel') built on May 15 2010 09:38:20
Библиотека кодирования : libebml v0.8.0 + libmatroska v0.9.0

Видео
Идентификатор : 1
Формат : AVC
Формат/Информация : Advanced Video Codec
Профиль формата : [email protected]
Параметр CABAC формата : Да
Параметр ReFrames формата : 9 кадров
Идентификатор кодека : V_MPEG4/ISO/AVC
Продолжительность : 23 м.
Битрейт : 1978 Кбит/сек
Ширина : 1280 пикселей
Высота : 720 пикселей
Соотношение сторон : 16:9
Режим частоты кадров : Постоянный
Частота кадров : 23,976 кадра/сек
Цветовое пространство : YUV
Субдискретизация насыщенности : 4:2:0
Битовая глубина : 8 бит
Тип развёртки : Прогрессивная
Бит/(Пиксели*Кадры) : 0.090
Размер потока : 331 Мбайт (82%)
Библиотека кодирования : x264 core 133 r2334 a3ac64b
Настройки программы : cabac=1 / ref=9 / deblock=1:1:1 / analyse=0x3:0x133 / me=umh / subme=10 / psy=1 / psy_rd=1.00:0.00 / mixed_ref=1 / me_range=24 / chroma_me=1 / trellis=2 / 8x8dct=1 / cqm=0 / deadzone=21,11 / fast_pskip=1 / chroma_qp_offset=-2 / threads=3 / lookahead_threads=1 / sliced_threads=0 / nr=0 / decimate=1 / interlaced=0 / bluray_compat=0 / constrained_intra=0 / bframes=8 / b_pyramid=2 / b_adapt=2 / b_bias=0 / direct=3 / weightb=1 / open_gop=0 / weightp=2 / keyint=300 / keyint_min=29 / scenecut=40 / intra_refresh=0 / rc_lookahead=60 / rc=crf / mbtree=1 / crf=18.0 / qcomp=0.60 / qpmin=0 / qpmax=69 / qpstep=4 / ip_ratio=1.40 / aq=1:1.00
Default : Да
Forced : Нет
Коэффициенты матрицы : BT.709

Аудио #1
Идентификатор : 2
Формат : AC-3
Формат/Информация : Audio Coding 3
Расширение режима : CM (complete main)
Параметр Endianness формата : Big
Идентификатор кодека : A_AC3
Продолжительность : 23 м.
Вид битрейта : Постоянный
Битрейт : 192 Кбит/сек
Каналы : 2 канала
Расположение каналов : Front: L R
Частота : 48,0 КГц
Битовая глубина : 16 бит
Метод сжатия : С потерями
Размер потока : 32,2 Мбайт (8%)
Заголовок : Persona99
Язык : Russian
Default : Да
Forced : Нет

Аудио #2
Идентификатор : 3
Формат : AC-3
Формат/Информация : Audio Coding 3
Расширение режима : CM (complete main)
Параметр Endianness формата : Big
Идентификатор кодека : A_AC3
Продолжительность : 23 м.
Вид битрейта : Постоянный
Битрейт : 192 Кбит/сек
Каналы : 2 канала
Расположение каналов : Front: L R
Частота : 48,0 КГц
Битовая глубина : 16 бит
Метод сжатия : С потерями
Размер потока : 32,2 Мбайт (8%)
Язык : Japanese
Default : Нет
Forced : Нет

Текст #1
Идентификатор : 4
Формат : ASS
Идентификатор кодека : S_TEXT/ASS
Идентификатор кодека/Информация : Advanced Sub Station Alpha
Метод сжатия : Без потерь
Заголовок : ass
Язык : Russian
Default : Нет
Forced : Нет

Текст #2
Идентификатор : 5
Формат : UTF-8
Идентификатор кодека : S_TEXT/UTF8
Идентификатор кодека/Информация : UTF-8 Plain Text
Заголовок : srt
Язык : Russian
Default : Нет
Forced : Нет

   
Торрент: Зарегистрирован [23 окт 2014, 15:59] За каждые 2 ГБ. аплоада (сидирования) этого торрента начисляется бонус: 0.001 Скачать торрент
Скачать торрент
[ Размер 134.26 КБ / Просмотров 31 ]

Статус:
 
Приватный: Нет (DHT включён)
Размер: 25.7 ГБ (27 598 386 484 байт)
   
Аватара пользователя
Прохожий
Прохожий
 
Раздал: 0 байт
Скачал: 0 байт
Ратио: None.
Сообщения: 7
Зарегистрирован: 18 окт 2014, 15:45
Откуда: Москва

Re: Ван-Пис / One Piece (Уда Коносукэ) [TV] [601-666 из ?] [без хардсаба] [RUS(int),JAP+SUB] [1999 г., приключения, комедия, фэнтези, сёнэн, HDTVRip] [720p]

Сообщение Persona999 » 23 окт 2014, 16:00

Озвучена серия 666!
Аватара пользователя
Прохожий
Прохожий
 
Раздал: 0 байт
Скачал: 0 байт
Ратио: None.
Сообщения: 7
Зарегистрирован: 18 окт 2014, 15:45
Откуда: Москва


Вернуться в HD и BDrip

Кто сейчас на конференции

Зарегистрированные пользователи: нет зарегистрированных пользователей

Ресурс не предоставляет электронные версии произведений, а занимается лишь коллекционированием и каталогизацией ссылок, присылаемых и публикуемых на форуме нашими читателями. Если вы являетесь правообладателем какого-либо представленного материала и не желаете чтобы ссылка на него находилась в нашем каталоге, свяжитесь с нами и мы незамедлительно удалим её. Файлы для обмена на трекере предоставлены пользователями сайта, и администрация не несёт ответственности за их содержание. Просьба не заливать файлы, защищенные авторскими правами, а также файлы нелегального содержания!