Фейри Тейл (ТВ-2) / Сказка о хвосте феи / Fairy Tail (Исихира Синдзи) [TV] [001-029 из ?] [без хардсаба] [Rus(int), JAP+SUB] [2014 г., приключения, фэнтези, сёнэн, HDTVRip] [HWP] скачать торрент

Модератор: Модераторы аниме

  • Статистика раздачи
Размер: 8.46 ГБ   |  Зарегистрирован: 23 окт 2014, 15:56   |   .torrent скачан: 1 раз
Сидеров: 32  [ 0 байт/сек ]     Личеров: 1  [ 0 байт/сек ]  
Список файлов : Кто скачал : Раздают : Скачивают : Кто благодарил : История : Не раздающие : Запрашивали сидеров : Внешние трекеры 
  

Фейри Тейл (ТВ-2) / Сказка о хвосте феи / Fairy Tail (Исихира Синдзи) [TV] [001-029 из ?] [без хардсаба] [Rus(int), JAP+SUB] [2014 г., приключения, фэнтези, сёнэн, HDTVRip] [HWP]

Сообщение Persona999 » 18 окт 2014, 16:01


Фейри Тейл / Fairy Tail



Год выпуска:2014
Страна:Япония
Жанр:приключения, фэнтези, сёнэн
Продолжительность:>13 по 23 мин.
Перевод: Мария Гостюхина (Maria) и Jenia aka Zub
Редактирование: Advokat
Озвучено: Одноголосый женский Persona99
Русские субтитры: есть ASS + srt
Две звуковые дорожки:
1.рyсский закадровый.
2.оригинал.яп.
Хардсаб: Нет

Режиссер: Исихира Синдзи
Снято по манге: Fairy Tail
Автор оригинала: Масима Хиро

Описание: Фейри Тейл – знаменитая на весь мир своими безбашенными выходками Гильдия волшебников по найму. Молодая волшебница Люси была уверена, что, став одним из её членов, попала в самую замечательную на свете Гильдию… до тех пор, пока не познакомилась со своими камрадами – взрывным огнедышащим и сметающим всё на своём пути Нацу, летающим говорящим котом Хэппи, эксгибиционистом Греем, занудой-берсерком Эльзой, гламурным и любвеобильным Локи… Вместе им предстоит одолеть немало врагов и пережить множество незабываемых приключений!

Релиз GSGroup


Качество:TVRip
Формат: AVI
Видео кодек: XviD
Аудио кодек: AC3
Видео: 704x396/23.976/1294kbpc
Аудио: RUS - JAP - 48000Hz 192 kb/s tot , Stereo
Код: Выделить всё
176 (001). Драконий владыка
177 (002). Проект "Затмение"
178 (003). Фея-интриган
179 (004). Грей против Руфуса
180 (005). Рыцари - лютые волки
181 (006). Хвостатые феи против палачей
182 (007). Горящая земля
183 (008). Там, где есть мы
184 (009). Завтра страны не стало
185 (010). Эльза против Кагуры
186 (011). Будущее на пути к отчаянию
187 (012). Перемены
188 (013). Гроза
189 (014). Слава
190 (015). Затворяющий врата
191 (016). Нацу против Прохиндея
192 (017). Живи для меня!
193 (018). Семь драконов
194 (019). Волшебство Циркониса
195 (020). Человек и человек, дракон и дракон, человек и дракон
196 (021). Грех и жертва
197 (022). Пора жить
198 (023). Золотые луга
199 (024). Большой бал
200 (025). Капля времени.
Общее
Полное имя : E:\анииме с русским звуком\Fairy Tail 176+\01_Fairy Tail - 176[Persona99].rus.jap.avi
Формат : AVI
Формат/Информация : Audio Video Interleave
Размер файла : 300 Мбайт
Продолжительность : 24 м.
Общий поток : 1692 Кбит/сек
Программа кодирования : VirtualDubMod 1.5.10.2 (build 2540/release)
Библиотека кодирования : VirtualDubMod build 2540/release

Видео
Идентификатор : 0
Формат : MPEG-4 Visual
Профиль формата : Advanced [email protected]
Параметр BVOP формата : 2
Параметр QPel формата : Нет
Параметр GMC формата : Без точки перехода
Параметр матрицы формата : Default (H.263)
Идентификатор кодека : XVID
Идентификатор кодека/Подсказка : XviD
Продолжительность : 24 м.
Битрейт : 1294 Кбит/сек
Ширина : 704 пикселя
Высота : 396 пикселей
Соотношение сторон : 16:9
Частота кадров : 23,976 кадра/сек
Цветовое пространство : YUV
Субдискретизация насыщенности : 4:2:0
Битовая глубина : 8 бит
Тип развёртки : Прогрессивная
Метод сжатия : С потерями
Бит/(Пиксели*Кадры) : 0.194
Размер потока : 229 Мбайт (76%)
Библиотека кодирования : XviD 1.2.1 (UTC 2008-12-04)

Аудио #1
Идентификатор : 1
Формат : AC-3
Формат/Информация : Audio Coding 3
Расширение режима : CM (complete main)
Параметр Endianness формата : Big
Идентификатор кодека : 2000
Продолжительность : 24 м.
Вид битрейта : Постоянный
Битрейт : 192 Кбит/сек
Каналы : 2 канала
Расположение каналов : Front: L R
Частота : 48,0 КГц
Битовая глубина : 16 бит
Метод сжатия : С потерями
Размер потока : 34,0 Мбайт (11%)
Выравнивание : Разделение по промежуткам
Продолжительность промежутка : 42 мс. (1,00 видеокадр)
Время предзагрузки промежутка : 500 мс.

Аудио #2
Идентификатор : 2
Формат : AC-3
Формат/Информация : Audio Coding 3
Расширение режима : CM (complete main)
Параметр Endianness формата : Big
Идентификатор кодека : 2000
Продолжительность : 24 м.
Вид битрейта : Постоянный
Битрейт : 192 Кбит/сек
Каналы : 2 канала
Расположение каналов : Front: L R
Частота : 48,0 КГц
Битовая глубина : 16 бит
Метод сжатия : С потерями
Размер потока : 34,0 Мбайт (11%)
Выравнивание : Разделение по промежуткам
Продолжительность промежутка : 42 мс. (1,00 видеокадр)
Время предзагрузки промежутка : 500 мс.
   
Торрент: Зарегистрирован [23 окт 2014, 15:56] За каждые 2 ГБ. аплоада (сидирования) этого торрента начисляется бонус: 0.001 Скачать торрент
Скачать торрент
[ Размер 49.28 КБ / Просмотров 63 ]

Статус:
 
Приватный: Нет (DHT включён)
Размер: 8.46 ГБ (9 087 687 641 байт)
   
Аватара пользователя
Прохожий
Прохожий
 
Раздал: 0 байт
Скачал: 0 байт
Ратио: None.
Сообщения: 7
Зарегистрирован: 18 окт 2014, 15:45
Откуда: Москва

  • Похожие торренты
    Ответы
    Просмотры
    Последнее сообщение

Re: Фейри Тейл (ТВ-2) / Сказка о хвосте феи / Fairy Tail (Исихира Синдзи) [TV] [001-029 из ?] [без хардсаба] [Rus(int), JAP+SUB] [2014 г., приключения, фэнтези, сёнэн, HDTVRip] [HWP]

Сообщение Persona999 » 23 окт 2014, 15:57

Озвучен новый эпизод!№ 29
Аватара пользователя
Прохожий
Прохожий
 
Раздал: 0 байт
Скачал: 0 байт
Ратио: None.
Сообщения: 7
Зарегистрирован: 18 окт 2014, 15:45
Откуда: Москва


Вернуться в HD и BDrip

Кто сейчас на конференции

Зарегистрированные пользователи: нет зарегистрированных пользователей

cron
Ресурс не предоставляет электронные версии произведений, а занимается лишь коллекционированием и каталогизацией ссылок, присылаемых и публикуемых на форуме нашими читателями. Если вы являетесь правообладателем какого-либо представленного материала и не желаете чтобы ссылка на него находилась в нашем каталоге, свяжитесь с нами и мы незамедлительно удалим её. Файлы для обмена на трекере предоставлены пользователями сайта, и администрация не несёт ответственности за их содержание. Просьба не заливать файлы, защищенные авторскими правами, а также файлы нелегального содержания!