Амагами СС (ТВ1)/ Нежный укус / Amagami SS (Ёсимаса Хираикэ/Yoshimasa Hiraike) [TV] [1-26 из 26] [2010 г., романтика, школа, сёнэн, BDRip] скачать торрент

Модератор: Модераторы аниме

  • Статистика раздачи
Размер: 5.88 ГБ   |  Зарегистрирован: 08 сен 2014, 13:26   |   .torrent скачан: 0 раз
Сидеров: 3  [ 0 байт/сек ]     Личеров: 4  [ 0 байт/сек ]  
Список файлов : Кто скачал : Раздают : Скачивают : Кто благодарил : История : Не раздающие : Запрашивали сидеров : Внешние трекеры 
  

Амагами СС (ТВ1)/ Нежный укус / Amagami SS (Ёсимаса Хираикэ/Yoshimasa Hiraike) [TV] [1-26 из 26] [2010 г., романтика, школа, сёнэн, BDRip]

Сообщение дядя Женя » 08 сен 2014, 13:31

Амагами СС


Оригинальное название: Amagami SS



Страна: Япония
Год выпуска: 2010г.
Жанр: школа, романтика, сёнэн
Продолжительность: ТВ (26 эп.), 25 мин.
Студия: AIC
Перевод: двухголосая (Animedia) (int)
Режиссёр: Ёсимаса Хираикэ
Главные герои: Цукаса Аяцудзи (Сэйю — Каори Надзука), Харука Морисима (Сэйю — Сидзука Ито), Цукаса Аяцудзи (Сэйю — Каори Надзука), Рихоко Сакураи (Сэйю — Рёко Синтани), Каору Танамати (Сэйю — Рина Сато), Саэ Наката (Сэйю — Хироми Конно), Ай Нанасаки (Сэйю — Юкана), Риса Камадзаки (Сэйю — Маи Кадоваки)







Описание: Каждый выбирает по себе… Сделать выбор – самое сложное в жизни молодого человека, и это в полной мере испытал 17-летний Дзюнъити Татибана, тихий и скромный японский школьник. Однажды обжегшись в отношениях с прекрасным полом, Дзюн долго «дул на молоко», ограничиваясь картинками и личным планетарием, который оборудовал в собственном стенном шкафу. Но в шкафу вечно не просидишь – природа берет свое, и главный герой обнаруживает, что плодотворно общаться можно не только с книгами, лучшим другом и младшей сестренкой.Старшая школа – неиссякаемый источник и опорный камень аниме – так полна соблазнов!

Что делать, когда с тобой заговаривает красавица Харука – пусть школьный идол, но приятная в общении и нисколько не зазнающаяся старшеклассница? А может, стоит взглянуть на милую скромницу Саэ, с которой вроде бы свела сама судьба? Или принять вызов Ай – сильной и уверенной в себе спортсменки, да еще подруги сестры? Хотя зачем ходить далеко – ведь в классе есть «своя в доску» бесшабашная Каору, а еще простая и веселая Рихоко? Да и как понимать взгляды старосты Цукасы – по виду типичной отличницы, а вот иногда такое проскакивает… В общем, проблем у Дзюна хватает, а как он будет с ними разбираться, сможет ли вырасти и стать мужчиной – нам покажут авторы аниме!

© Hollow, World Art



01. Morishima Haruka - Chapter 1: Yearning
02. Morishima Haruka - Chapter 2: Approaching
03. Morishima Haruka - Chapter 3: Jealousy
04. Morishima Haruka - Final Chapter: Love
05. Tanamachi Kaoru - Chapter 1: Bad Company
06. Tanamachi Kaoru - Chapter 2: Confusion
07. Tanamachi Kaoru - Chapter 3: Betrayal
08. Tanamachi Kaoru - Final Chapter: Progress
09. Nakata Sae - Chapter 1: Underclassman
10. Nakata Sae - Chapter 2: Training
11. Nakata Sae - Chapter 3: Change
12. Nakata Sae - Final Chapter: Lovers
13. Nanasaki Ai - Chapter 1: The Worst
14. Nanasaki Ai - Chapter 2: Heartthrob
15. Nanasaki Ai - Chapter 3: Transformation
16. Nanasaki Ai - Final Chapter: Confession
17. Sakurai Rihoko - Chapter 1: Memories
18. Sakurai Rihoko - Chapter 2: Help
19. Sakurai Rihoko - Chapter 3: Succession
20. Sakurai Rihoko - Final Chapter: Good-Bye
21. Ayatsuji Tsukasa - Chapter 1: Discovered
22. Ayatsuji Tsukasa - Chapter 2: Other Side
23. Ayatsuji Tsukasa - Chapter 3: Pride
24. Ayatsuji Tsukasa - Final Chapter: Promise
25. Kamizaki Risa: Truth
26. (00) Tachibana Miya: Little Sister





Качество: BDRip
Тип видео: без хардсаба
Формат: AVI
Видео: XVID, 704x396, 23.976fps, ~1300kbps
Аудио: (int)
RUS: MP3, 48000Hz, 2ch, 160Kbps - [Absurd & Eladiel]
JAP: MP3, 48000Hz, 2ch, 160Kbps
Субтитры: RUS:SRT, ASS (ext.)



General
Complete name : H:\Torrent\Vivod\Amagami SS [BDRip] [HWP]\[Sora] Amagami SS [TV] [01 of 26] [rus & jap] [Absurd & Eladiel] [BDRip] [HWP].avi
Format : AVI
Format/Info : Audio Video Interleave
File size : 234 MiB
Duration : 24mn 11s
Overall bit rate : 1 350 Kbps
Writing application : VirtualDubMod 1.5.10.2 (build 2542/release)
Writing library : VirtualDubMod build 2542/release

Video
ID : 0
Format : MPEG-4 Visual
Format profile : Advanced [email protected]
Format settings, BVOP : 2
Format settings, QPel : No
Format settings, GMC : No warppoints
Format settings, Matrix : Custom
Codec ID : XVID
Codec ID/Hint : XviD
Duration : 24mn 11s
Bit rate : 1 017 Kbps
Width : 704 pixels
Height : 396 pixels
Display aspect ratio : 16:9
Frame rate : 23.976 fps
Color space : YUV
Chroma subsampling : 4:2:0
Bit depth : 8 bits
Scan type : Progressive
Compression mode : Lossy
Bits/(Pixel*Frame) : 0.152
Stream size : 176 MiB (75%)
Writing library : XviD 64

Audio #1
ID : 1
Format : MPEG Audio
Format version : Version 1
Format profile : Layer 3
Mode : Joint stereo
Mode extension : MS Stereo
Codec ID : 55
Codec ID/Hint : MP3
Duration : 24mn 9s
Bit rate mode : Constant
Bit rate : 160 Kbps
Channel(s) : 2 channels
Sampling rate : 48.0 KHz
Compression mode : Lossy
Stream size : 27.6 MiB (12%)
Alignment : Aligned on interleaves
Interleave, duration : 42 ms (1.00 video frame)
Interleave, preload duration : 504 ms
Title : [Absurd & Eladiel]
Writing library : LAME3.98.4ЄЄЄЄШ

Audio #2
ID : 2
Format : MPEG Audio
Format version : Version 1
Format profile : Layer 3
Mode : Joint stereo
Mode extension : MS Stereo
Codec ID : 55
Codec ID/Hint : MP3
Duration : 24mn 9s
Bit rate mode : Constant
Bit rate : 160 Kbps
Channel(s) : 2 channels
Sampling rate : 48.0 KHz
Compression mode : Lossy
Stream size : 27.7 MiB (12%)
Alignment : Aligned on interleaves
Interleave, duration : 42 ms (1.00 video frame)
Interleave, preload duration : 504 ms
Title : [Japanese]




Две открывающие композиции аниме-сериала исполняет Azusa
01. «I Love» (серии 1-13)
02. «Kimi no Mama de» (14 серия и далее)

Закрывающие композиции:
01. «I Love Your Eyes» исполняет Сидзука Ито
02. «Surely Tomorrow Will…» — Рина Сато
03. «I Can’t See Anything But You» — Хироми Конно
04. «Love is Colored Like Water» — Юкана Ногами
05. «Love is Calm» — Рёко Синтани
06. «The Angel of Lamentation» — Каори Надзука
07. «The Prospects of Love» — Май Кадоваки








   
Торрент: Зарегистрирован [08 сен 2014, 13:26] За каждые 2 ГБ. аплоада (сидирования) этого торрента начисляется бонус: 0.001 Скачать торрент
Скачать торрент
[ Размер 25.47 КБ / Просмотров 87 ]

Статус:
 
Приватный: Нет (DHT включён)
Размер: 5.88 ГБ (6 318 812 959 байт)
   
Аватара пользователя
Вникающий пир
Вникающий пир
 
Раздал: 165.06 ГБ
Скачал: 81.41 ГБ
Ратио: 2.028
Сообщения: 97
Зарегистрирован: 07 май 2010, 16:51

Вернуться в HD и BDrip

Кто сейчас на конференции

Зарегистрированные пользователи: нет зарегистрированных пользователей

Ресурс не предоставляет электронные версии произведений, а занимается лишь коллекционированием и каталогизацией ссылок, присылаемых и публикуемых на форуме нашими читателями. Если вы являетесь правообладателем какого-либо представленного материала и не желаете чтобы ссылка на него находилась в нашем каталоге, свяжитесь с нами и мы незамедлительно удалим её. Файлы для обмена на трекере предоставлены пользователями сайта, и администрация не несёт ответственности за их содержание. Просьба не заливать файлы, защищенные авторскими правами, а также файлы нелегального содержания!
cron