Помолвлена с незнакомцем / Mikakunin de Shinkoukei (Фудзивара Ёсиюки) [TV+Special] [6+1 из 12+1] & [2+0 из 12+1] [2014 г., комедия, повседневность, романтика, BDRip] [720p] скачать торрент

Модератор: Модераторы аниме

  • Статистика раздачи
Размер: 4.78 ГБ   |  Зарегистрирован: 18 май 2014, 12:56   |   .torrent скачан: 2 раз
Сидеров: 0  [ 0 байт/сек ]     Личеров: 0  [ 0 байт/сек ]  
Список файлов : Кто скачал : Раздают : Скачивают : Кто благодарил : История : Не раздающие : Запрашивали сидеров : Внешние трекеры 
  

Помолвлена с незнакомцем / Mikakunin de Shinkoukei (Фудзивара Ёсиюки) [TV+Special] [6+1 из 12+1] & [2+0 из 12+1] [2014 г., комедия, повседневность, романтика, BDRip] [720p]

Сообщение Мисаки Аюдзава » 18 май 2014, 12:57






Год выпуска: 2014
Страна: Япония
Жанр: Комедия, повседневность, романтика
Продолжительность: ТВ-сериал, 12 эп. по 24 мин.
Выпуск: c 09.01.2014 по 27.03.2014
Перевод:
русские субтитры от LeoDreaM & Усатый Ня
Озвучка: одноголосая (жен.) от Persona99 (GetSmart)
Режиссер: Фудзивара Ёсиюки
Студия: Dogakobo
Описание:
Кобэни Ёномори, симпатичная девушка и отличная хозяйка, получила на 16-й день рождения самый необычный подарок. Мать объявила, что по слову покойного деда, главы клана, Кобэни с детства помолвлена с наследником семьи Мицуминэ, своим ровесником по имени Хакуя. Сам суженый знатного рода, но вырос в горной деревне, и, чтобы обрести городской шик и приобщиться к цивилизации, отныне будет жить с ними – а вот, кстати, и он. Окончательно добило Ёномори-младшую явление вихря энергии в виде малышки Масиро Мицуминэ, которая с порога заявила, что не отдаст братика абы кому и быстро научит невестку жить по закону гор!

Впрочем, все вышло не так уж плохо. Малолетняя «золовка», поняв, что брату досталась вовсе не белоручка, быстро подобрела, а Бэнио, старшая из сестер Ёномори, ненавязчиво показала гостье, кто в доме хозяйка, да так, что бедная Масиро стала прятаться от будущей «сватьи». Ну а Хакуя оказался, словно самурай иной эпохи – загадочный, невозмутимый, не тратящий слов зря, но говорящий только по делу. Из обрывков фраз и прочих намеков Кобэни поняла, что помолвка возникла не на пустом месте, и их с Хакуей связывает давняя история. А раз так, незачем спешить - надо разобраться в себе и дать парню шанс. Не зря говорят – браки по расчету всегда удачны, если расчет был хороший!

© Hollow, World Art

Дословно название сериала можно перевести как «Неясно кто и непонятно что».


Качество: BDRip
Энкод: Winter - RG Pantheon
Тип видео: без хардсаба, без линковки
Формат: mkv
Видео: x264 (Hi10p), 1280x720, ~4000 Kbps, 23.976 fps
Аудио JAP: Vorbis, 48000Hz, ~256 Kbps, 2ch
Аудио RUS 1: AC3, 48000Hz, ~192 Kbps, 2ch (внешними файлами)
Общее
Уникальный идентификатор : 235448828833814812529030000655455975000 (0xB121CB83F3FFE6BA857406E6CA9F7658)
Полное имя : Z:\Anime\720p\Mikakunin de Shinkoukei [BD] [720p]\[Winter] Mikakunin de Shinkoukei 01 [BDrip 1280x720 x264 Vorbis].mkv
Формат : Matroska
Версия формата : Version 2
Размер файла : 755 Мбайт
Продолжительность : 23 м.
Режим общего битрейта : Переменный
Общий поток : 4457 Кбит/сек
Дата кодирования : UTC 2014-04-03 17:11:44
Программа кодирования : mkvmerge v2.9.8 ('C'est le bon') built on Aug 13 2009 12:49:06
Библиотека кодирования : libebml v0.7.7 + libmatroska v0.8.1

Видео
Идентификатор : 1
Формат : AVC
Формат/Информация : Advanced Video Codec
Профиль формата : High [email protected]
Параметр CABAC формата : Да
Параметр ReFrames формата : 9 кадров
Идентификатор кодека : V_MPEG4/ISO/AVC
Продолжительность : 23 м.
Битрейт : 4112 Кбит/сек
Ширина : 1280 пикселей
Высота : 720 пикселей
Соотношение сторон : 16:9
Режим частоты кадров : Постоянный
Частота кадров : 23,976 кадра/сек
Цветовое пространство : YUV
Субдискретизация насыщенности : 4:2:0
Битовая глубина : 10 бит
Тип развёртки : Прогрессивная
Бит/(Пиксели*Кадры) : 0.186
Размер потока : 697 Мбайт (92%)
Библиотека кодирования : x264 core 132 r2309 3b1f1f7
Настройки программы : cabac=1 / ref=9 / deblock=1:-2:-2 / analyse=0x3:0x133 / me=umh / subme=9 / psy=1 / psy_rd=0.90:0.00 / mixed_ref=1 / me_range=24 / chroma_me=1 / trellis=2 / 8x8dct=1 / cqm=0 / deadzone=21,11 / fast_pskip=1 / chroma_qp_offset=-2 / threads=12 / lookahead_threads=2 / sliced_threads=0 / nr=0 / decimate=0 / interlaced=0 / bluray_compat=0 / constrained_intra=0 / bframes=8 / b_pyramid=2 / b_adapt=2 / b_bias=0 / direct=1 / weightb=1 / open_gop=0 / weightp=2 / keyint=250 / keyint_min=23 / scenecut=40 / intra_refresh=0 / rc=crf / mbtree=0 / crf=15.7 / qcomp=0.70 / qpmin=9 / qpmax=40 / qpstep=4 / ip_ratio=1.40 / pb_ratio=1.30 / aq=1:0.90
Default : Нет
Forced : Нет

Аудио
Идентификатор : 2
Формат : Vorbis
Параметр Floor формата : 1
Идентификатор кодека : A_VORBIS
Продолжительность : 23 м.
Вид битрейта : Переменный
Битрейт : 256 Кбит/сек
Каналы : 2 канала
Частота : 48,0 КГц
Метод сжатия : С потерями
Размер потока : 43,4 Мбайт (6%)
Библиотека кодирования : libVorbis (Schaufenugget) (20101101 (Schaufenugget))
Язык : Japanese
Default : Да
Forced : Нет
   
Торрент: Зарегистрирован [18 май 2014, 12:56] Скачать торрент
Скачать торрент
[ Размер 26.33 КБ / Просмотров 67 ]

Статус:
 
Приватный: Нет (DHT включён)
Размер: 4.78 ГБ (5 130 817 343 байт)
   
Аватара пользователя
Вникающий пир
Вникающий пир
 
Раздал: 2.09 ГБ
Скачал: 4.62 ГБ
Ратио: None.
Сообщения: 91
Фото: 13
Зарегистрирован: 25 апр 2014, 18:56
Откуда: Новороссийск
  • Личное сообщение
  • Сайт
ТегиMikakunin de Shinkoukei, аниме, скачать, торрент

Вернуться в HD и BDrip

Кто сейчас на конференции

Зарегистрированные пользователи: antheiaislouis

Ресурс не предоставляет электронные версии произведений, а занимается лишь коллекционированием и каталогизацией ссылок, присылаемых и публикуемых на форуме нашими читателями. Если вы являетесь правообладателем какого-либо представленного материала и не желаете чтобы ссылка на него находилась в нашем каталоге, свяжитесь с нами и мы незамедлительно удалим её. Файлы для обмена на трекере предоставлены пользователями сайта, и администрация не несёт ответственности за их содержание. Просьба не заливать файлы, защищенные авторскими правами, а также файлы нелегального содержания!
cron