Президент школьного совета - горничная! / Kaichou wa Maid-sama! (Сакурай Хироаки) [TV+Special] [26+1 из 26+1] [2010 г., комедия, романтика, седзе, BDRip] [720p] скачать торрент

Модератор: Модераторы аниме

  • Статистика раздачи
Размер: 16.42 ГБ   |  Зарегистрирован: 15 май 2014, 16:58   |   .torrent скачан: 1 раз
Сидеров: 0  [ 0 байт/сек ]     Личеров: 0  [ 0 байт/сек ]  
Список файлов : Кто скачал : Раздают : Скачивают : Кто благодарил : История : Не раздающие : Запрашивали сидеров : Внешние трекеры 
  

Президент школьного совета - горничная! / Kaichou wa Maid-sama! (Сакурай Хироаки) [TV+Special] [26+1 из 26+1] [2010 г., комедия, романтика, седзе, BDRip] [720p]

Сообщение Фаромир брат » 15 май 2014, 16:58




Год выпуска: 2010
Страна: Япония
Жанр: Комедия, романтика, седзе
Продолжительность: 26 эп. по 25 мин. + 1 спешл
Выпуск: c 02.04.2010 по 24.09.2010
Перевод:
  • русские субтитры от Tany Sword & sys3x & Rictorn (полные/вспомогательные)
Режиссер: Сакурай Хироаки
Студия: J.C. Staff
Описание:
Мужская частная школа Сэйка, славная бесчинствами своих воспитанников, когда-то наводила ужас на всю округу. Для «смягчения нравов» в ней ввели совместное обучение, но результат пока очень и очень сомнителен. Впрочем, Мисаки Аюдзава – спортсменка, отличница и первая в истории Сэйки девушка-президент школьного совета – твердо решила изменить положение и принести в храм науки порядок и дисциплину. Неудивительно, что бескомпромиссная Мисаки в среде парней считается тираном и мужененавистницей, а среди немногочисленных учениц – идеалом и единственной надеждой. Но, как водится в аниме, не все так просто…

Семью Аюдзавы бросил отец, оставив на память значительный долг. Чтобы помочь матери и поднять младшую сестренку, девушка вынуждена подрабатывать в мэйд-кафе на другом конце города, разумеется, всячески скрывая это от школы. Но все тайное становится явным, и Мисаки прямо на работе встречается с Такуми Усуем, не просто одноклассником, а одним из школьных идолов. Однако разоблачения не последовало, хотя пережить «президенту-горничной» пришлось немало. И чего же хочет Такуми, который второй год наблюдает школьную жизнь как бы со стороны? Кто смотрел «Карэкано» и «Спецкласс А», тот знает, чего они все хотят!

© Hollow, World Art
  • двухголосая (муж./жен.) от Carrier88 & Milirina (Anything-group) (перевод: Carrier88)
  • двухголосая (жен./муж.) от Eladiel & Zendos (Animedia) (перевод: Tany Sword & sys3x & Rictorn)
01. Misaki Is a Maid!
02. A Maid Even at the School Festival
03. Misaki is What Color? Natural Color?
04. Net Idol Aoi-chan
05. House-sitting for the First Time
06. Man, Ayuzawa School!
07. Enter Miyabigaoka Academy`s Student Council President
08. Misaki, to Miyabigaoka Academy
09. Even the Peach Boy Becomes a Maid
10. Sakura`s Love for Indies
11. Close in on Usui Takumi`s Secret!
12. A Maid Even at the Sports Festival
13. Moron, Deliquent and Hero
14. 1-7 Kanou Soutarou
15. A Bespectacled Bunny in a Tour Around the School
16. Maid Latte at the Sea Resort
17. Usui, Surrounded By the Enemy
18. Even The Maid`s A Footman
19. Re-paired In The Footman Audition
20. The Vice-President`s a Prince!? Aoi and the Happy Friends
21. Usui`s Rival? Shintani Hinata
22. Playing Tag at the Outdoor School
23. Maid Latte Sweet Feast
24. Melting Things Away with Latte Magic
25. Hinata, Misaki and Usui
26. You`re Really Sly Ayuzawa, Usui You idiot!

27 (Special). It`s an Extra
Общее
Уникальный идентификатор : 245566480043970269066423794893325961220 (0xB8BE623BD4AE2C6E8272F2B4E2398804)
Полное имя : W:\ANIMATION\720p\Kaichou wa Maid-sama [BD] [720p]\[Yousei-raws] Kaichou wa Maid-sama! 01 [BDRip 1280x720 x264 Vorbis].mkv
Формат : Matroska
Версия формата : Version 2
Размер файла : 461 Мбайт
Продолжительность : 24 м.
Режим общего битрейта : Переменный
Общий поток : 2661 Кбит/сек
Дата кодирования : UTC 2011-11-24 09:29:40
Программа кодирования : mkvmerge v2.9.7 ('Tenderness') built on Jul 1 2009 18:43:35
Библиотека кодирования : libebml v0.7.7 + libmatroska v0.8.1

Видео
Идентификатор : 1
Формат : AVC
Формат/Информация : Advanced Video Codec
Профиль формата : High [email protected]
Параметр CABAC формата : Да
Параметр ReFrames формата : 9 кадров
Идентификатор кодека : V_MPEG4/ISO/AVC
Продолжительность : 24 м.
Битрейт : 2352 Кбит/сек
Ширина : 1280 пикселей
Высота : 720 пикселей
Соотношение сторон : 16:9
Режим частоты кадров : Постоянный
Частота кадров : 23,976 кадра/сек
Цветовое пространство : YUV
Субдискретизация насыщенности : 4:2:0
Битовая глубина : 10 бит
Тип развёртки : Прогрессивная
Бит/(Пиксели*Кадры) : 0.106
Размер потока : 407 Мбайт (88%)
Библиотека кодирования : x264 core 118 r2085+614 d1cc25d
Настройки программы : cabac=1 / ref=9 / deblock=1:-2:-2 / analyse=0x3:0x133 / me=umh / subme=9 / psy=1 / fade_compensate=0.00 / psy_rd=0.80:0.00 / mixed_ref=1 / me_range=24 / chroma_me=1 / trellis=2 / 8x8dct=1 / cqm=0 / deadzone=21,11 / fast_pskip=1 / chroma_qp_offset=-2 / threads=6 / sliced_threads=0 / nr=0 / decimate=0 / interlaced=0 / bluray_compat=0 / constrained_intra=0 / fgo=0 / bframes=8 / b_pyramid=2 / b_adapt=2 / b_bias=0 / direct=1 / weightb=1 / open_gop=0 / weightp=2 / keyint=250 / keyint_min=23 / scenecut=40 / intra_refresh=0 / rc=crf / mbtree=0 / crf=15.6 / qcomp=0.70 / qpmin=9 / qpmax=38 / qpstep=4 / ip_ratio=1.40 / pb_ratio=1.30 / aq=1:0.90
Default : Да
Forced : Нет

Аудио
Идентификатор : 2
Формат : Vorbis
Параметр Floor формата : 1
Идентификатор кодека : A_VORBIS
Продолжительность : 24 м.
Вид битрейта : Переменный
Битрейт : 256 Кбит/сек
Каналы : 2 канала
Частота : 48,0 КГц
Метод сжатия : С потерями
Размер потока : 44,3 Мбайт (10%)
Библиотека кодирования : libVorbis (Schaufenugget) (20101101 (Schaufenugget))
Язык : Japanese
Default : Да
Forced : Нет

Качество: BDRip
Энкод: Yousei-raws | #[email protected] rizon. net
Тип видео: без хардсаба
Формат: mkv
Видео: x264 (Hi10p), 1280x720, ~2800 Kbps, 23.976 fps
Аудио JAP: Vorbis, 48000Hz, 256 Kbps, 2ch
Аудио RUS 1: AAC, 48000Hz, 160 Kbps, 2ch (внешними файлами)
Аудио RUS 2: Vorbis, 48000Hz, 256 Kbps, 2ch (внешними файлами)
   
Торрент: Зарегистрирован [15 май 2014, 16:58] За каждые 2 ГБ. аплоада (сидирования) этого торрента начисляется бонус: 0.001 Золотая раздача - Скачанное не учитывается на 100% Скачать торрент
Скачать торрент
[ Размер 101.96 КБ / Просмотров 54 ]

Статус:
 
Приватный: Нет (DHT включён)
Размер: 16.42 ГБ (17 629 097 707 байт)
   
Аватара пользователя

Супермодератор
Супермодератор
 
Раздал: 24.34 ТБ
Скачал: 1.72 ТБ
Ратио: 20.884
Сообщения: 7936
Фото: 127
Зарегистрирован: 26 ноя 2012, 17:20
Medals: 2
1000 раздач! (1) Меценат №2 (1)
ТегиПрезидент школьного совета - горничная!, торрент, скачать, аниме

Вернуться в HD и BDrip

Кто сейчас на конференции

Зарегистрированные пользователи: antheiaislouis

cron
Ресурс не предоставляет электронные версии произведений, а занимается лишь коллекционированием и каталогизацией ссылок, присылаемых и публикуемых на форуме нашими читателями. Если вы являетесь правообладателем какого-либо представленного материала и не желаете чтобы ссылка на него находилась в нашем каталоге, свяжитесь с нами и мы незамедлительно удалим её. Файлы для обмена на трекере предоставлены пользователями сайта, и администрация не несёт ответственности за их содержание. Просьба не заливать файлы, защищенные авторскими правами, а также файлы нелегального содержания!
cron