Любовь, выборы и шоколад / Love, Election & Chocolate / Koi to Senkyo to Chocolate (Китахата Тору/Kitahata Torah) [TV] [12 из 12+1 Special] [2012 г., комедия, романтика, BDRip] [720p] скачать торрент

Модератор: Модераторы аниме

  • Статистика раздачи
Размер: 6.83 ГБ   |  Зарегистрирован: 19 май 2013, 15:17   |   .torrent скачан: 0 раз
Сидеров: 0  [ 0 байт/сек ]     Личеров: 0  [ 0 байт/сек ]  
Список файлов : Кто скачал : Раздают : Скачивают : Кто благодарил : История : Не раздающие : Запрашивали сидеров : Внешние трекеры 
  

Любовь, выборы и шоколад / Love, Election & Chocolate / Koi to Senkyo to Chocolate (Китахата Тору/Kitahata Torah) [TV] [12 из 12+1 Special] [2012 г., комедия, романтика, BDRip] [720p]

Сообщение дядя Женя » 19 май 2013, 15:21

Любовь, выборы и шоколад


Оригинальное название: Koi to Senkyo to Chocolate



Страна: Япония
Год выпуска: 2012 г.
Жанр: Комедия, романтика, драма, школа, гарем
Продолжительность: ТВ, 12 эп. по 24 мин. + 1 Special
Студия: AIC Build
Перевод: Любительский одноголосый (AniDub) (ext.)
Режсёр: Китахата Тору
Автор оригинала: Sprite
Главные герои: Юки Одзима (Сэйю: Юити Накамура), Тисато Сумиёси ( Сэйю: Эрико Накамура), Исара Аоми ( Сэйю: Май Кадоваки), Митиру Морисита ( Сэйю: Асами Имай), Мифую Киба ( Сэйю: Каори Мидзухаси), Сацуки Синономэ (Сэйю: Ю Асакава)







Описание: В престижной частной школе Такафудзи кипят совсем не детские страсти! Борьба за власть и влияние среди отпрысков небедных семей привела к первым жертвам, про многих лидеров Совета поползли темные слухи, и потому назначены новые выборы. Главным претендентом на пост президента Школьного совета является действующий казначей Сацуки Синономэ, которую даже недоброжелатели считают честным и справедливым человеком. У красавицы Синономэ один недостаток – она сторонник экономии и заявляет, что бюджет школы хоть и велик, но не резиновый, а потому сразу после ее избрания будут сокращены «ненужные» клубы, нацеленные лишь на развлечение. Увы, на первом месте в списке – клуб изучения сладостей, в котором состоят главные герои сериала!

Члены упомянутого клуба действительно собираются вместе, пробуют различные конфеты и кондитерские изделия, ставят им оценки и мило общаются между собой. Да, не очень продуктивно, но чем это хуже икэбаны или чайной церемонии? Потому на экстренном собрании было принято решение бороться за существование самым простым способом – выставив на выборы собственного кандидата. Им стал Юки Одзима – парень видный и решительный, друг детства президента клуба Тисато Сумиёси. Юки, конечно, подумал, прежде чем согласиться, но если бы бедняга знал, в какой скорпионий клубок собирается влезть, он бы думал куда дольше! Впрочем, в ситуации есть и плюсы: во-первых, только беда проявляет истинную сущность людей, а во-вторых – давно доказано, что в стрессовых ситуациях полезен именно шоколад!
© Hollow, World Art



01. Disbanding the Club!
02. Running in the Election!
03. Strategy!
04. Funding!
05. Festivities!
06. Counting Votes!
07. The Camp!
08. The Truth!
09. Accident!
10. Entangled!
11. Search!
12. Voting!
13. Love Sister




Перевод: Nachtwandler & Holydarkness
Энкод: Yousei-raws
Тип видео: без хардсаба



Качество: BDRip
Формат: mkv
Видео: x264 (Hi10p), 1280x720, ~2700 Kbps, 23.976 fps
Аудио:
JAP: Vorbis, 48000Hz, ~256 Kbps, 2ch (int.)
RUS: AC3, 48000Hz, ~192 Kbps, 2ch (ext.)
Субтитры: RUS (ext.)



Общее
Уникальный идентификатор : 223845226161127547602490685465079241472 (0xA86705BBD26880199D369C064286DB00)
Полное имя : Z:\Anime\720p\Koi to Senkyo to Chocolate [BD] [720p]\[Yousei-raws] Koi to Senkyo to Chocolate 01 [BDrip 1280x720 x264 Vorbis].mkv
Формат : Matroska
Версия формата : Version 2
Размер файла : 487 Мбайт
Продолжительность : 24 м.
Режим общего битрейта : Переменный
Общий поток : 2800 Кбит/сек
Дата кодирования : UTC 2012-09-28 13:07:06
Программа кодирования : mkvmerge v2.9.7 ('Tenderness') built on Jul 1 2009 18:43:35
Библиотека кодирования : libebml v0.7.7 + libmatroska v0.8.1

Видео
Идентификатор : 1
Формат : AVC
Формат/Информация : Advanced Video Codec
Профиль формата : High [email protected]
Параметр CABAC формата : Да
Параметр ReFrames формата : 9 кадров
Идентификатор кодека : V_MPEG4/ISO/AVC
Продолжительность : 24 м.
Битрейт : 2489 Кбит/сек
Ширина : 1280 пикселей
Высота : 720 пикселей
Соотношение сторон : 16:9
Режим частоты кадров : Постоянный
Частота кадров : 23,976 кадра/сек
Цветовое пространство : YUV
Субдискретизация насыщенности : 4:2:0
Битовая глубина : 10 бит
Тип развёртки : Прогрессивная
Бит/(Пиксели*Кадры) : 0.113
Размер потока : 433 Мбайт (89%)
Библиотека кодирования : x264 core 125 r2200 999b753
Настройки программы : cabac=1 / ref=9 / deblock=1:-2:-2 / analyse=0x3:0x133 / me=umh / subme=9 / psy=1 / psy_rd=0.90:0.00 / mixed_ref=1 / me_range=24 / chroma_me=1 / trellis=2 / 8x8dct=1 / cqm=0 / deadzone=21,11 / fast_pskip=1 / chroma_qp_offset=-2 / threads=6 / lookahead_threads=1 / sliced_threads=0 / nr=0 / decimate=0 / interlaced=0 / bluray_compat=0 / constrained_intra=0 / bframes=8 / b_pyramid=2 / b_adapt=2 / b_bias=0 / direct=1 / weightb=1 / open_gop=0 / weightp=2 / keyint=250 / keyint_min=23 / scenecut=40 / intra_refresh=0 / rc=crf / mbtree=0 / crf=15.6 / qcomp=0.70 / qpmin=9 / qpmax=40 / qpstep=4 / ip_ratio=1.40 / pb_ratio=1.30 / aq=1:0.90
Default : Да
Forced : Нет

Аудио
Идентификатор : 2
Формат : Vorbis
Параметр Floor формата : 1
Идентификатор кодека : A_VORBIS
Продолжительность : 24 м.
Вид битрейта : Переменный
Битрейт : 256 Кбит/сек
Каналы : 2 канала
Частота : 48,0 КГц
Метод сжатия : С потерями
Размер потока : 44,5 Мбайт (9%)
Библиотека кодирования : libVorbis (Schaufenugget) (20101101 (Schaufenugget))
Язык : Japanese
Default : Да
Forced : Нет




Доп. информация:
одноголосая (муж.) от Inspector_Gadjet (AniDub) [1-13]
одноголосая (муж.) от Z9IbleG (Opendub) [1-5]
одноголосая (муж.) от Ryc99 (ARRU) [1]

трехголосая от Say & Silv & Absurd (Anilibria) [1]







   
Торрент: Зарегистрирован [19 май 2013, 15:17] За каждые 2 ГБ. аплоада (сидирования) этого торрента начисляется бонус: 0.001 Скачать торрент
Скачать торрент
[ Размер 41.49 КБ / Просмотров 75 ]

Статус:
 
Приватный: Нет (DHT включён)
Размер: 6.83 ГБ (7 338 291 193 байт)
   
Аватара пользователя
Вникающий пир
Вникающий пир
 
Раздал: 165.06 ГБ
Скачал: 81.41 ГБ
Ратио: 2.028
Сообщения: 97
Зарегистрирован: 07 май 2010, 16:51

Вернуться в HD и BDrip

Кто сейчас на конференции

Зарегистрированные пользователи: нет зарегистрированных пользователей

cron
Ресурс не предоставляет электронные версии произведений, а занимается лишь коллекционированием и каталогизацией ссылок, присылаемых и публикуемых на форуме нашими читателями. Если вы являетесь правообладателем какого-либо представленного материала и не желаете чтобы ссылка на него находилась в нашем каталоге, свяжитесь с нами и мы незамедлительно удалим её. Файлы для обмена на трекере предоставлены пользователями сайта, и администрация не несёт ответственности за их содержание. Просьба не заливать файлы, защищенные авторскими правами, а также файлы нелегального содержания!
cron