Маги - волшебный лабиринт / Magi - Labyrinth of Magic (Масунари Кодзи / Koji Masunari) [TV] [25 из 25] [2012 г., приключения, комедия, фэнтези, сёнэн, HDTVRip] [720p] скачать торрент

Модератор: Модераторы аниме

  • Статистика раздачи
Размер: 7.6 ГБ   |  Зарегистрирован: 03 май 2013, 10:11   |   .torrent скачан: 233 раз
Сидеров: 105  [ 0 байт/сек ]     Личеров: 1  [ 0 байт/сек ]  
Список файлов : Кто скачал : Раздают : Скачивают : Кто благодарил : История : Не раздающие : Запрашивали сидеров : Внешние трекеры 
  

Маги - волшебный лабиринт / Magi - Labyrinth of Magic (Масунари Кодзи / Koji Masunari) [TV] [25 из 25] [2012 г., приключения, комедия, фэнтези, сёнэн, HDTVRip] [720p]

Сообщение дядя Женя » 03 май 2013, 10:20

Маги - волшебный лабиринт


Оригинальное название: Magi - Labyrinth of Magic



Страна: Япония
Год выпуска: 2012г.
Жанр: приключения, Комедия, фэнтези, сёнэн
Продолжительность: ТВ (25 эп.), 25 мин.
Студия: A-1 Pictures Inc.
Перевод: Двухголосый [AniFilm] (int.)
Режиссёр: Масунари Кодзи
Автор оригинала: Синобу Отака
Главные герои: Аладдин (озвучивание: Каори Исихара), Уго (озвучивание: Тосиюки Морикава), Алибаба Салуджа (озвучивание: Юки Кадзи), Морджана (озвучивание: Харука Томацу)







Описание: Если бы вам посчастливилось встретить джина, и он предложил вам исполнить любое желание, что бы вы пожелали? Денег, власти или, может быть, бессмертия? Наш главный герой, Аладдин, пожелал, чтобы джин Юго-кун стал его другом. Какие приключения ожидают новоиспеченных друзей? И что же скрыто в прошлом Аладдина? Так и начинаются приключения известного всем Алладина, вот только герою нашему 10 лет. Никакой Жасмин нет и в помине, зато полный сборник имен из "Тысяча и одна ночь” и увлекательная история приключений маленького мальчика, наделенного способностью выбрать короля. А, как всем известно, от судьбы никуда не деться, а возраст... он не имеет значения!



Ночь 01-ая: Аладдин и Али-Баба
Ночь 02-ая: Путь в подземелье
Ночь 03-ья: Магия свершения
Ночь 04-ая: Жители равнин
Ночь 05-ая: Хранитель подземелья
Ночь 06-ая: Воинственное племя Фаналис
Ночь 07-ая: Синдбад
Ночь 8-ая: Нарушенное обещание
Ночь 09-ая: Долг принца
Ночь 10-ая: Джудал
Ночь 11-ая: Гости издалека
Ночь 12-ая: Разлад и решимость
Ночь 13-ая: Принц-спаситель
Ночь 13-ая: Принц-мятежник
Ночь 14-ая: Ответ Али-Бабы
Ночь 15-ая: Ответ Касима
Ночь 16-ая: Мудрость Соломона
Ночь 17-ая: Улыбка
Ночь 18-ая: Королевство Синдрия
Ночь 19-ая: Звёздное имя Синдбад
Ночь 20-ая: Два принца
Ночь 21-ая: Лабиринт Заган
Ночь 22-ая: Артефакт огня
Ночь 23-ая: Боевой клич
Ночь 24-ая: Падение в порок
Ночь 25-ая: Али-Баба и Аладдин




General
Unique ID : 194254752845226995946398792981756189868 (0x92241AC2C47BDCB19334490561E71CAC)
Complete name : D:\Torrents\[AniFilm] Magi [TV] [Mukuro & Lali]\[AniFilm] Magi [TV] [01 of xx] [HDTVRip 1280x720 x264 Hi10p] [Ru Jp] [Mukuro & Lali].mkv
Format : Matroska
Format version : Version 2
File size : 279 MiB
Duration : 24mn 26s
Overall bit rate : 1 594 Kbps
Movie name : Ночь первая: Аладдин и Али-Баба
Encoded date : UTC 2012-10-09 20:34:13
Writing application : mkvmerge v5.8.0 ('No Sleep / Pillow') built on Sep 2 2012 15:37:04
Writing library : libebml v1.2.3 + libmatroska v1.3.0
Attachment : Yes / Yes / Yes / Yes / Yes

Video
ID : 1
Format : AVC
Format/Info : Advanced Video Codec
Format profile : High [email protected]
Format settings, CABAC : Yes
Format settings, ReFrames : 8 frames
Codec ID : V_MPEG4/ISO/AVC
Duration : 24mn 26s
Bit rate : 1 242 Kbps
Width : 1 280 pixels
Height : 720 pixels
Display aspect ratio : 16:9
Frame rate mode : Constant
Frame rate : 23.976 fps
Color space : YUV
Chroma subsampling : 4:2:0
Bit depth : 10 bits
Scan type : Progressive
Bits/(Pixel*Frame) : 0.056
Stream size : 217 MiB (78%)
Title : AniFilm.TV
Writing library : x264 core 120 r2164+656 2ff844c
Encoding settings : cabac=1 / ref=8 / deblock=1:0:0 / analyse=0x3:0x133 / me=umh / subme=10 / psy=1 / fade_compensate=0.00 / psy_rd=0.60:0.05 / mixed_ref=1 / me_range=24 / chroma_me=1 / trellis=2 / 8x8dct=1 / cqm=0 / deadzone=21,11 / fast_pskip=1 / chroma_qp_offset=-3 / threads=18 / sliced_threads=0 / nr=0 / decimate=1 / interlaced=0 / bluray_compat=0 / constrained_intra=0 / fgo=0 / bframes=8 / b_pyramid=2 / b_adapt=2 / b_bias=0 / direct=3 / weightb=1 / open_gop=0 / weightp=2 / keyint=250 / keyint_min=23 / scenecut=40 / intra_refresh=0 / rc_lookahead=40 / rc=crf / mbtree=1 / crf=19.0 / qcomp=0.60 / qpmin=4 / qpmax=81 / qpstep=4 / ip_ratio=1.40 / aq=2:1.00
Language : English
Default : Yes
Forced : No

Audio #1
ID : 2
Format : AC-3
Format/Info : Audio Coding 3
Mode extension : CM (complete main)
Format settings, Endianness : Big
Codec ID : A_AC3
Duration : 24mn 26s
Bit rate mode : Constant
Bit rate : 160 Kbps
Channel(s) : 2 channels
Channel positions : Front: L R
Sampling rate : 48.0 KHz
Bit depth : 16 bits
Compression mode : Lossy
Stream size : 28.0 MiB (10%)
Title : Mukuro, Lali | AniFilm.TV
Language : Russian
Default : Yes
Forced : No

Audio #2
ID : 3
Format : AC-3
Format/Info : Audio Coding 3
Mode extension : CM (complete main)
Format settings, Endianness : Big
Codec ID : A_AC3
Duration : 24mn 26s
Bit rate mode : Constant
Bit rate : 160 Kbps
Channel(s) : 2 channels
Channel positions : Front: L R
Sampling rate : 48.0 KHz
Bit depth : 16 bits
Compression mode : Lossy
Stream size : 28.0 MiB (10%)
Title : Original
Language : Japanese
Default : No
Forced : No

Text #1
ID : 4
Format : ASS
Codec ID : S_TEXT/ASS
Codec ID/Info : Advanced Sub Station Alpha
Compression mode : Lossless
Title : Hiroshi-Kun, Redgar-Firegorn, Igorek1102 (только надписи и лирика)
Language : Russian
Default : Yes
Forced : No

Text #2
ID : 5
Format : ASS
Codec ID : S_TEXT/ASS
Codec ID/Info : Advanced Sub Station Alpha
Compression mode : Lossless
Title : Hiroshi-Kun, Redgar-Firegorn, Igorek1102 (полный перевод)
Language : Russian
Default : No
Forced : No

Menu
00:01:33.010 : en:OP
00:03:03.433 : :Part A
00:13:26.931 : en:Part B
00:24:11.909 : en:Preview




Перевод: Hiroshi-kun, Redgar-Firegorn, Igorek1102 [Firegorn-Team]
Озвучивание: Mukuro, Lali [AniFilm]
Тех. поддержка: Mukuro, Lali [AniFilm]
Работа со звуком: Solomon [AniFilm]



Качество: HDTVRip
Формат видео: mkv
Видео: x264(Hi10p), 1280x720, ~1 300 kbps, 23,976 fps
Аудио:
RUS:1-6 серии: AC3, 160 kbps, 48 KHz, 2 ch | [2VO](int.)
7-25 cерии: AAC, 192 kbps, 48 KHz, 2 ch | [2VO](int.)
JAP: 1-6 серии: AC3, 160 kbps, 48 KHz, 2 ch | [Original](int.)
7-25 cерии: AAC, 192 kbps, 48 KHz, 2 ch | [Original](int.)
Субтитры:
Rus: ASS, только надписи и лирика (включены по умолчанию) (int.)
Rus: ASS, полный перевод (int.)






   
Торрент: Зарегистрирован [03 май 2013, 10:11] За каждые 2 ГБ. аплоада (сидирования) этого торрента начисляется бонус: 0.001 Серебряная раздача - Скачанное не учитывается на 75% Скачать торрент
Скачать торрент
[ Размер 41.46 КБ / Просмотров 55 ]

Статус:
 
Приватный: Нет (DHT включён)
Размер: 7.6 ГБ (8 156 907 783 байт)
   
Аватара пользователя
Вникающий пир
Вникающий пир
 
Раздал: 165.06 ГБ
Скачал: 81.41 ГБ
Ратио: 2.028
Сообщения: 97
Зарегистрирован: 07 май 2010, 16:51

Вернуться в HD и BDrip

Кто сейчас на конференции

Зарегистрированные пользователи: antheiaislouis

cron
Ресурс не предоставляет электронные версии произведений, а занимается лишь коллекционированием и каталогизацией ссылок, присылаемых и публикуемых на форуме нашими читателями. Если вы являетесь правообладателем какого-либо представленного материала и не желаете чтобы ссылка на него находилась в нашем каталоге, свяжитесь с нами и мы незамедлительно удалим её. Файлы для обмена на трекере предоставлены пользователями сайта, и администрация не несёт ответственности за их содержание. Просьба не заливать файлы, защищенные авторскими правами, а также файлы нелегального содержания!
cron