Охотники за насекомыми / Mushibugyou(Хамана Такаюки) [TV] [26 из 26] [2013 г., приключения, фэнтези, сёнэн, HDTVRip] скачать торрент

Модератор: Модераторы аниме

  • Статистика раздачи
Размер: 7.1 ГБ   |  Зарегистрирован: 24 янв 2014, 22:42   |   .torrent скачан: 0 раз
Сидеров: 16  [ 0 байт/сек ]     Личеров: 5  [ 0 байт/сек ]  
Список файлов : Кто скачал : Раздают : Скачивают : Кто благодарил : История : Не раздающие : Запрашивали сидеров : Внешние трекеры 
  

Охотники за насекомыми / Mushibugyou(Хамана Такаюки) [TV] [26 из 26] [2013 г., приключения, фэнтези, сёнэн, HDTVRip]

Сообщение Фаромир брат » 29 апр 2013, 16:35

Охотники за насекомыми / Mushibugyou


Страна: Япония
Год выпуска: 2013 г.
Жанр: приключения, фэнтези, сёнэн
Тип: TV
Продолжительность: ТВ (>26 эп.), 25 мин.
Режиссер: Хамана Такаюки
Озвучка: Persona99(int)
Описание:
В эпоху Эдо гигантские насекомые нападают на людей и пожирают их. И вот по просьбе горожан создан специальный отряд для уничтожения жутких тварей. Все бойцы в нём обладают особыми способностями. Дзинтаро, сын великого мастера меча отправляется в столицу, дабы вступить в ряды охотников.
© Persona99


Общее
Полное имя : E:\анииме с русским звуком\Mushibugyo\01_Mushibugyo_[Persona99][704x396.XviD].rus.jap.avi
Формат : AVI
Формат/Информация : Audio Video Interleave
Размер файла : 279 Мбайт
Продолжительность : 23 м.
Общий поток : 1678 Кбит/сек
Программа кодирования : VirtualDubMod 1.5.10.2 (build 2540/release)
Библиотека кодирования : VirtualDubMod build 2540/release

Видео
Идентификатор : 0
Формат : MPEG-4 Visual
Профиль формата : Advanced [email protected]
Параметр BVOP формата : 2
Параметр QPel формата : Нет
Параметр GMC формата : Без точки перехода
Параметр матрицы формата : Default (H.263)
Идентификатор кодека : XVID
Идентификатор кодека/Подсказка : XviD
Продолжительность : 23 м.
Битрейт : 1280 Кбит/сек
Ширина : 704 пикселя
Высота : 396 пикселей
Соотношение сторон : 16:9
Частота кадров : 23,976 кадра/сек
Цветовое пространство : YUV
Субдискретизация насыщенности : 4:2:0
Битовая глубина : 8 бит
Тип развёртки : Прогрессивная
Метод сжатия : С потерями
Бит/(Пиксели*Кадры) : 0.191
Размер потока : 213 Мбайт (76%)
Библиотека кодирования : XviD 1.2.1 (UTC 2008-12-04)

Аудио #1
Идентификатор : 1
Формат : AC-3
Формат/Информация : Audio Coding 3
Расширение режима : CM (complete main)
Параметр Endianness формата : Big
Идентификатор кодека : 2000
Продолжительность : 23 м.
Вид битрейта : Постоянный
Битрейт : 192 Кбит/сек
Каналы : 2 канала
Расположение каналов : Front: L R
Частота : 48,0 КГц
Битовая глубина : 16 бит
Метод сжатия : С потерями
Размер потока : 31,9 Мбайт (11%)
Выравнивание : Разделение по промежуткам
Продолжительность промежутка : 42 мс. (1,00 видеокадр)
Время предзагрузки промежутка : 500 мс.

Аудио #2
Идентификатор : 2
Формат : AC-3
Формат/Информация : Audio Coding 3
Расширение режима : CM (complete main)
Параметр Endianness формата : Big
Идентификатор кодека : 2000
Продолжительность : 23 м.
Вид битрейта : Постоянный
Битрейт : 192 Кбит/сек
Каналы : 2 канала
Расположение каналов : Front: L R
Частота : 48,0 КГц
Битовая глубина : 16 бит
Метод сжатия : С потерями
Размер потока : 31,9 Мбайт (11%)
Выравнивание : Разделение по промежуткам
Продолжительность промежутка : 42 мс. (1,00 видеокадр)
Время предзагрузки промежутка : 500 мс.

Качество: HDTVRip
Тип релиза: Без хардсаба
Формат видео: AVI
Совместимость с бытовыми плеерами: Да
Видео: XviD, 23.976 fps, 1280 kbps, 704 x 396 pixels
Аудио 1: ac3, 2 канала, 48 KHz, 192 kbps Язык Русский (в составе контейнера) ;
Аудио 2: ac3, 2 канала, 48 KHz, 192 kbps Язык Японский ; Озвучка 2: оригинал
Субтитры: внешние ass, srt Язык субтитров русский ; Перевод: fynnley

   
Торрент: Зарегистрирован [24 янв 2014, 22:42] За каждые 2 ГБ. аплоада (сидирования) этого торрента начисляется бонус: 0.001 Серебряная раздача - Скачанное не учитывается на 50% Скачать торрент
Скачать торрент
[ Размер 42.35 КБ / Просмотров 67 ]

Статус:
 
Приватный: Нет (DHT включён)
Размер: 7.1 ГБ (7 627 588 965 байт)
   
Аватара пользователя

Супермодератор
Супермодератор
 
Раздал: 24.34 ТБ
Скачал: 1.72 ТБ
Ратио: 20.884
Сообщения: 7936
Фото: 127
Зарегистрирован: 26 ноя 2012, 17:20
Medals: 2
1000 раздач! (1) Меценат №2 (1)
ТегиMushibugyou, торрент, скачать

  • Похожие торренты
    Ответы
    Просмотры
    Последнее сообщение

Re: Охотники за насекомыми / Mushibugyou(Хамана Такаюки) [TV] [4 из 12] [2013 г., приключения, фэнтези, сёнэн, HDTVRip]

Сообщение Фаромир брат » 06 май 2013, 08:37

Добавлены 3-я,4-я серии
Аватара пользователя

Супермодератор
Супермодератор
 
Раздал: 24.34 ТБ
Скачал: 1.72 ТБ
Ратио: 20.884
Сообщения: 7936
Фото: 127
Зарегистрирован: 26 ноя 2012, 17:20
Medals: 2
1000 раздач! (1) Меценат №2 (1)

Re: Охотники за насекомыми / Mushibugyou(Хамана Такаюки) [TV] [5 из 12] [2013 г., приключения, фэнтези, сёнэн, HDTVRip]

Сообщение Фаромир брат » 19 июн 2013, 12:05

Добавлена 5-я серия
Аватара пользователя

Супермодератор
Супермодератор
 
Раздал: 24.34 ТБ
Скачал: 1.72 ТБ
Ратио: 20.884
Сообщения: 7936
Фото: 127
Зарегистрирован: 26 ноя 2012, 17:20
Medals: 2
1000 раздач! (1) Меценат №2 (1)

Re: Охотники за насекомыми / Mushibugyou(Хамана Такаюки) [TV] [6 из 12] [2013 г., приключения, фэнтези, сёнэн, HDTVRip]

Сообщение Фаромир брат » 10 июл 2013, 20:22

Добавлена 6-я серия
Аватара пользователя

Супермодератор
Супермодератор
 
Раздал: 24.34 ТБ
Скачал: 1.72 ТБ
Ратио: 20.884
Сообщения: 7936
Фото: 127
Зарегистрирован: 26 ноя 2012, 17:20
Medals: 2
1000 раздач! (1) Меценат №2 (1)

Re: Охотники за насекомыми / Mushibugyou(Хамана Такаюки) [TV] [9 из 12] [2013 г., приключения, фэнтези, сёнэн, HDTVRip]

Сообщение Фаромир брат » 07 авг 2013, 19:36

Добавлена 7-9 серии
Аватара пользователя

Супермодератор
Супермодератор
 
Раздал: 24.34 ТБ
Скачал: 1.72 ТБ
Ратио: 20.884
Сообщения: 7936
Фото: 127
Зарегистрирован: 26 ноя 2012, 17:20
Medals: 2
1000 раздач! (1) Меценат №2 (1)

Re: Охотники за насекомыми / Mushibugyou(Хамана Такаюки) [TV] [12 из 12] [2013 г., приключения, фэнтези, сёнэн, HDTVRip]

Сообщение Фаромир брат » 02 сен 2013, 21:02

Добавлена 10-12 серии
Аватара пользователя

Супермодератор
Супермодератор
 
Раздал: 24.34 ТБ
Скачал: 1.72 ТБ
Ратио: 20.884
Сообщения: 7936
Фото: 127
Зарегистрирован: 26 ноя 2012, 17:20
Medals: 2
1000 раздач! (1) Меценат №2 (1)

Re: Охотники за насекомыми / Mushibugyou(Хамана Такаюки) [TV] [15 из 26] [2013 г., приключения, фэнтези, сёнэн, HDTVRip]

Сообщение Фаромир брат » 09 окт 2013, 17:17

Добавлены 13-15 серии
Аватара пользователя

Супермодератор
Супермодератор
 
Раздал: 24.34 ТБ
Скачал: 1.72 ТБ
Ратио: 20.884
Сообщения: 7936
Фото: 127
Зарегистрирован: 26 ноя 2012, 17:20
Medals: 2
1000 раздач! (1) Меценат №2 (1)

Re: Охотники за насекомыми / Mushibugyou(Хамана Такаюки) [TV] [17 из 26] [2013 г., приключения, фэнтези, сёнэн, HDTVRip]

Сообщение Фаромир брат » 29 ноя 2013, 18:24

Добавлены: 16-17 серии
Аватара пользователя

Супермодератор
Супермодератор
 
Раздал: 24.34 ТБ
Скачал: 1.72 ТБ
Ратио: 20.884
Сообщения: 7936
Фото: 127
Зарегистрирован: 26 ноя 2012, 17:20
Medals: 2
1000 раздач! (1) Меценат №2 (1)

Re: Охотники за насекомыми / Mushibugyou(Хамана Такаюки) [TV] [26 из 26] [2013 г., приключения, фэнтези, сёнэн, HDTVRip]

Сообщение Фаромир брат » 24 янв 2014, 22:43

Добавлены все серии сериал завершён!
Аватара пользователя

Супермодератор
Супермодератор
 
Раздал: 24.34 ТБ
Скачал: 1.72 ТБ
Ратио: 20.884
Сообщения: 7936
Фото: 127
Зарегистрирован: 26 ноя 2012, 17:20
Medals: 2
1000 раздач! (1) Меценат №2 (1)


Вернуться в HD и BDrip

Кто сейчас на конференции

Зарегистрированные пользователи: нет зарегистрированных пользователей

Ресурс не предоставляет электронные версии произведений, а занимается лишь коллекционированием и каталогизацией ссылок, присылаемых и публикуемых на форуме нашими читателями. Если вы являетесь правообладателем какого-либо представленного материала и не желаете чтобы ссылка на него находилась в нашем каталоге, свяжитесь с нами и мы незамедлительно удалим её. Файлы для обмена на трекере предоставлены пользователями сайта, и администрация не несёт ответственности за их содержание. Просьба не заливать файлы, защищенные авторскими правами, а также файлы нелегального содержания!
cron