Бегущий в лабиринте: Испытание огнём / Maze Runner: The Scorch Trials (2015) WEBRip 1080p | Трейлер скачать торрент

Модератор: Модераторы видео

  • Статистика раздачи
Размер: 271.54 МБ   |  Зарегистрирован: 05 сен 2015, 15:00   |   .torrent скачан: 133 раз
Сидеров: 113  [ 0 байт/сек ]     Личеров: 2  [ 0 байт/сек ]  
Список файлов : Кто скачал : Раздают : Скачивают : Кто благодарил : История : Не раздающие : Запрашивали сидеров : Внешние трекеры 
  

Бегущий в лабиринте: Испытание огнём / Maze Runner: The Scorch Trials (2015) WEBRip 1080p | Трейлер

Сообщение Админ » 05 сен 2015, 15:00

Год выпуска: 2015
Производство: США / Gotham Group, TSG Entertainment, Temple Hill Entertainment
Жанр: Фантастика, боевик, триллер
Перевод: Дублированный

Режиссер: Уэс Болл
Продюсеры: Марти Бауэн, Вик Годфри, Эллен Голдсмит-Вейн
Актеры: Кэтрин МакНамара, Натали Эммануэль, Дилан О’Брайен, Эйдан Гиллен, Томас Сэнгстер, Кая Скоделарио, Патришия Кларксон, Джанкарло Эспозито, Ки Хонг Ли, Лили Тейлор

Описание фильма:
Лабиринт пройден, но Томасу, Терезе, Минхо и прочим глэйдерам не приходится расслабляться. Таинственное Руководство ПОРОКА — секретной организации, устроившей гонки на выживание — назначает ребятам новые, смертельно опасные испытания. На сей раз их ждет переход по раскаленной пустыне и встреча с жертвами неизлечимой болезни, которые отличаются буйным нравом и непредсказуемым поведением.


Дата мировой премьеры: 10 сентября 2015
Дата российской премьеры: 17 сентября 2015, «Двадцатый Век Фокс СНГ»



Продолжительность: 00:02:03
Качество видео: WEBRip

Видеокодек: MPEG-4 AVC/H.264
Битрейт видео: ~18,0 Мбит/сек
Размер кадра: 1920x1080
Аудиокодек: AC3 5.1
Битрейт аудио: 448 Кбит/сек
Общее
Уникальный идентификатор : 28638108427984544998025433746939129186 (0x158B7FC2368C47C6A2181F2C1F752D62)
Полное имя : G:ВидеоMaze Runner. The Scorch Trials (2015) WEBRip [1080p] Трейлер.mkv
Формат : Matroska
Версия формата : Version 4 / Version 2
Размер файла : 272 Мбайт
Продолжительность : 2 м. 3 с.
Общий поток : 18,4 Мбит/сек
Программа кодирования : Lavf55.37.101
Библиотека кодирования : Lavf55.37.101

Видео
Идентификатор : 1
Формат : AVC
Формат/Информация : Advanced Video Codec
Профиль формата : [email protected]
Параметр CABAC формата : Нет
Параметр ReFrames формата : 1 кадр
Идентификатор кодека : V_MPEG4/ISO/AVC
Продолжительность : 2 м. 3 с.
Битрейт : 18,0 Мбит/сек
Ширина : 1920 пикселей
Высота : 1080 пикселей
Соотношение сторон : 16:9
Режим частоты кадров : Постоянный
Частота кадров : 23,976 кадра/сек
Цветовое пространство : YUV
Субдискретизация насыщенности : 4:2:0
Битовая глубина : 8 бит
Тип развёртки : Прогрессивная
Бит/(Пиксели*Кадры) : 0.362
Размер потока : 260 Мбайт (96%)
Библиотека кодирования : x264 core 119
Настройки программы : cabac=0 / ref=1 / deblock=0:0:0 / analyse=0:0 / me=dia / subme=0 / psy=1 / psy_rd=1.00:0.00 / mixed_ref=0 / me_range=16 / chroma_me=1 / trellis=0 / 8x8dct=0 / cqm=0 / deadzone=21,11 / fast_pskip=1 / chroma_qp_offset=0 / threads=4 / sliced_threads=0 / nr=0 / decimate=1 / interlaced=0 / bluray_compat=0 / constrained_intra=0 / bframes=0 / weightp=0 / keyint=250 / keyint_min=23 / scenecut=0 / intra_refresh=0 / rc=abr / mbtree=0 / bitrate=18000 / ratetol=1.0 / qcomp=0.60 / qpmin=0 / qpmax=69 / qpstep=4 / ip_ratio=1.40 / aq=0
Default : Да
Forced : Нет
HANDLER_NAME : VideoHandler

Аудио
Идентификатор : 2
Формат : AC-3
Формат/Информация : Audio Coding 3
Расширение режима : CM (complete main)
Параметр Endianness формата : Big
Идентификатор кодека : A_AC3
Продолжительность : 2 м. 3 с.
Вид битрейта : Постоянный
Битрейт : 448 Кбит/сек
Каналы : 6 каналов
Расположение каналов : Front: L C R, Side: L R, LFE
Частота : 48,0 КГц
Битовая глубина : 16 бит
Метод сжатия : С потерями
Задержка видео : -5 мс.
Размер потока : 6,60 Мбайт (2%)
Язык : English
Default : Да
Forced : Нет
Дата кодирования : UTC 2015-05-18 21:05:41
HANDLER_NAME : IsoMedia File Produced by Google, 5-11-2011


Скриншоты:
   
Торрент: Зарегистрирован [05 сен 2015, 15:00] Скачать торрент
Скачать торрент
[ Размер 11.28 КБ / Просмотров 116 ]

Статус:
 
Приватный: Нет (DHT включён)
Размер: 271.54 МБ (284 730 428 байт)
   
Аватара пользователя

Администратор
Администратор
 
Раздал: 2.33 ПБ
Скачал: 1.02 ПБ
Ратио: 2.281
Сообщения: 3722
Зарегистрирован: 07 май 2010, 17:29
Medals: 1
Лучший релиз за месяц (1)
  • Личное сообщение
  • ICQ

Вернуться в Разное

Кто сейчас на конференции

Зарегистрированные пользователи: нет зарегистрированных пользователей

Ресурс не предоставляет электронные версии произведений, а занимается лишь коллекционированием и каталогизацией ссылок, присылаемых и публикуемых на форуме нашими читателями. Если вы являетесь правообладателем какого-либо представленного материала и не желаете чтобы ссылка на него находилась в нашем каталоге, свяжитесь с нами и мы незамедлительно удалим её. Файлы для обмена на трекере предоставлены пользователями сайта, и администрация не несёт ответственности за их содержание. Просьба не заливать файлы, защищенные авторскими правами, а также файлы нелегального содержания!
cron