Гримм / Grimm / Сезон: 1 / Серии: [22 из 22] (Марк Баклэнд, Холли Дэйл, Омар Мадха/Marc Buckland, Holly Dale, Omar Madhu) [2011, ужасы, фантастика, фэнтези, драма, WEB-DL 720p] LostFilm скачать торрент

Зарубежные сериалы, иностранные сериалы, в хорошем качестве, 720p, 1080p, Remux, HDTV

Модератор: Модераторы видео

  • Статистика раздачи
Размер: 31.5 ГБ   |  Зарегистрирован: 11 апр 2013, 11:12   |   .torrent скачан: 11 раз
Сидеров: 0  [ 0 байт/сек ]     Личеров: 0  [ 0 байт/сек ]  
Список файлов : Кто скачал : Раздают : Скачивают : Кто благодарил : История : Не раздающие : Запрашивали сидеров : Внешние трекеры 
  

Гримм / Grimm / Сезон: 1 / Серии: [22 из 22] (Марк Баклэнд, Холли Дэйл, Омар Мадха/Marc Buckland, Holly Dale, Omar Madhu) [2011, ужасы, фантастика, фэнтези, драма, WEB-DL 720p] LostFilm

Сообщение Фаромир брат » 11 апр 2013, 11:12

Гримм / Grimm

Год выпуска: 2011
Страна: США
Жанр: Ужасы, фантастика, фэнтези, драма
Продолжительность серии: ~00:43:00
Перевод: профессиональный многоголосый закадровый, LostFilm
Озвучка: Студия "Кравец".
Русские субтитры: нет
Субтитры: Английские
Режиссёр: Марк Баклэнд, Холли Дэйл, Омар Мадха
В ролях: Дэйв Гвинтоли, Расселл Хорнсби, Битси Таллоч, Сайлас Уэйр Митчелл, Саша Ройз, Регги Ли, Клэр Коффи, Айанна Беркшир, Тим Бэгли, Кейт Бёрто
Описание: Мрачная фантастическая полицейская драма о мире, населенном персонажами из сказок братьев Гримм.

Качество: WEB-DL 720p
Формат: MKV
Видео кодек: H.264
Аудио кодек: AC3
Видео: MPEG-4 AVC, 1280x720, 23.976 fps, ~4000 kbps, 0.183 bit/pixel
Аудио #1: Русский: 48 kHz, AC3, 3/2 (L,C,R,l,r) + LFE ch, ~384.00 kbps avg |Многоголосый закадровый, LostFilm|
Аудио #2: Английский: 48 kHz, AC3, 3/2 (L,C,R,l,r) + LFE ch, ~384.00 kbps avg
Субтитры: Английские
1. Pilot / Пилот
2. Bears Will Be Bears / Медвежья натура
3. Beeware / Осторожно, пчёлы!
4. Lonelyhearts / Одинокие сердца
5. Danse Macabre / Пляска смерти
6. The Three Bad Wolves / Три злых волка
7. Let Your Hair Down / Брось мне косу свою
8. Game Ogre / Конец огры
9. Of Mouse and Man / О мыши и человеке
10. Organ Grinder / Мясорубка
11. Tarantella / Тарантелла
12. Last Grimm Standing / Гримм-победитель
13. Three Coins in a Fuchsbau / Три монетки в рыжехвосте
14. Plumed Serpent / Пернатый змей
15. Island of Dreams / Остров грёз
16. The Thing with Feathers / Чудо в перьях
17. Love Sick / Любовная горячка
18. Cat and Mouse / Кошки-мышки
19. Leave It to Beavers / Предоставьте это бобрам
20. Happily Ever Aftermath / И жили они недолго, но счастливо
21. Big Feet / Большеноги
22. Woman in Black / Женщина в черном
General
Complete name : Grimm.S01E01.720p.WEB-DL.Rus.Eng.HDCLUB.mkv
Format : Matroska
Format version : Version 2
File size : 1.44 GiB
Duration : 43mn 11s
Overall bit rate : 4 763 Kbps
Movie name : Grimm [Season 1] (2011) - Release for HDCLUB
Encoded date : UTC 2011-11-02 09:35:42
Writing application : mkvmerge v5.0.1 ('Es ist Sommer') built on Oct 9 2011 11:55:43
Writing library : libebml v1.2.2 + libmatroska v1.3.0

Video
ID : 1
Format : AVC
Format/Info : Advanced Video Codec
Format profile : [email protected]
Format settings, CABAC : No
Format settings, ReFrames : 2 frames
Codec ID : V_MPEG4/ISO/AVC
Duration : 43mn 11s
Bit rate : 3 901 Kbps
Width : 1 280 pixels
Height : 720 pixels
Display aspect ratio : 16:9
Frame rate : 23.976 fps
Color space : YUV
Chroma subsampling : 4:2:0
Bit depth : 8 bits
Scan type : Progressive
Bits/(Pixel*Frame) : 0.177
Stream size : 1.18 GiB (82%)
Title : Grimm S01E01: Pilot / Пилот - Release for HDCLUB
Language : English
Color primaries : BT.709-5, BT.1361, IEC 61966-2-4, SMPTE RP177
Transfer characteristics : BT.709-5, BT.1361
Matrix coefficients : BT.709-5, BT.1361, IEC 61966-2-4 709, SMPTE RP177

Audio #1
ID : 2
Format : AC-3
Format/Info : Audio Coding 3
Mode extension : CM (complete main)
Codec ID : A_AC3
Duration : 43mn 11s
Bit rate mode : Constant
Bit rate : 384 Kbps
Channel(s) : 6 channels
Channel positions : Front: L C R, Side: L R, LFE
Sampling rate : 48.0 KHz
Bit depth : 16 bits
Compression mode : Lossy
Stream size : 119 MiB (8%)
Language : Russian

Audio #2
ID : 3
Format : AC-3
Format/Info : Audio Coding 3
Mode extension : CM (complete main)
Codec ID : A_AC3
Duration : 43mn 11s
Bit rate mode : Constant
Bit rate : 384 Kbps
Channel(s) : 6 channels
Channel positions : Front: L C R, Side: L R, LFE
Sampling rate : 48.0 KHz
Bit depth : 16 bits
Compression mode : Lossy
Stream size : 119 MiB (8%)
Language : English

Text
ID : 4
Format : UTF-8
Codec ID : S_TEXT/UTF8
Codec ID/Info : UTF-8 Plain Text
Language : English
   
Торрент: Зарегистрирован [11 апр 2013, 11:12] За каждые 2 ГБ. аплоада (сидирования) этого торрента начисляется бонус: 0.001 Серебряная раздача - Скачанное не учитывается на 75% Скачать торрент
Скачать торрент
[ Размер 159.58 КБ / Просмотров 126 ]

Статус:
 
Приватный: Нет (DHT включён)
Размер: 31.5 ГБ (33 821 685 652 байт)
   
Аватара пользователя

Супермодератор
Супермодератор
 
Раздал: 24.34 ТБ
Скачал: 1.72 ТБ
Ратио: 20.884
Сообщения: 7936
Фото: 127
Зарегистрирован: 26 ноя 2012, 17:20
Medals: 2
1000 раздач! (1) Меценат №2 (1)

Вернуться в Зарубежные сериалы HD (720p/1080p/Remux)

Кто сейчас на конференции

Зарегистрированные пользователи: нет зарегистрированных пользователей

Ресурс не предоставляет электронные версии произведений, а занимается лишь коллекционированием и каталогизацией ссылок, присылаемых и публикуемых на форуме нашими читателями. Если вы являетесь правообладателем какого-либо представленного материала и не желаете чтобы ссылка на него находилась в нашем каталоге, свяжитесь с нами и мы незамедлительно удалим её. Файлы для обмена на трекере предоставлены пользователями сайта, и администрация не несёт ответственности за их содержание. Просьба не заливать файлы, защищенные авторскими правами, а также файлы нелегального содержания!
cron