Культ / Cult (Натан Хоуп/Nathan Hope) [1 сезон, серии 1-13 из 13][2013,Драма, триллер, детектив, WEB-DLRip 720p][LostFilm] скачать торрент

Зарубежные сериалы, иностранные сериалы, в хорошем качестве, 720p, 1080p, Remux, HDTV

Модератор: Модераторы видео

  • Статистика раздачи
Размер: 18.37 ГБ   |  Зарегистрирован: 05 авг 2013, 20:04   |   .torrent скачан: 0 раз
Сидеров: 0  [ 0 байт/сек ]     Личеров: 0  [ 0 байт/сек ]  
Список файлов : Кто скачал : Раздают : Скачивают : Кто благодарил : История : Не раздающие : Запрашивали сидеров : Внешние трекеры 
  

Культ / Cult (Натан Хоуп/Nathan Hope) [1 сезон, серии 1-13 из 13][2013,Драма, триллер, детектив, WEB-DLRip 720p][LostFilm]

Сообщение kasgaez » 22 мар 2013, 22:42

Название: Культ
Оригинальное название: Cult
Страна: США
Жанр: Драма, триллер, детектив
Дата выхода: 2013
Сезон: 1 сезон
Серии: 1-13 из 13
Продолжительность: ~ 00:42:39
Перевод: Многоголосый закадровый, профессиональный - LostFilm
Режиссёр : Натан Хоуп
В ролях: Мэттью Дэвис, Джессика Лукас ,Алона Тал, Роберт Неппер, Мари Авгеропулос, Джеймс Пиццинато,Кристиан Майкл, Купер Джеффри, Пирс Аиша, Хиндс Кадим Хардисон


Описание: Мистический сериал расскажет нам о ряде таинственных событий, в результате которых исчезли люди. Молодая помощница продюсера в тандеме с блоггером-журналистом начинают вести расследование среди группы ярых фанатиков, которые осуществляют убийства из телешоу.
Качество: WEB-DLRip 720p
Формат видео: AVC
Видео: ~4041Кбит/сек 1280x720
Аудио: AC-3 384 Кбит/сек

Общее
Уникальный идентификатор : 178961961391857404265828436724358888045 (0x86A2D1EDD1BFE599AF7EE995EE50BA6D)
Полное имя : D:\Новые фильмы\Cult(season 1)\Cult.S01E01.720p.rus.LostFilm.TV.mkv
Формат : Matroska
Версия формата : Version 2
Размер файла : 1,43 Гбайт
Продолжительность : 42 м.
Общий поток : 4812 Кбит/сек
Дата кодирования : UTC 2013-02-23 17:28:23
Программа кодирования : mkvmerge v4.2.0 ('No Talking') сборка от Jul 28 2010 18:38:23
Библиотека кодирования : libebml v1.0.0 + libmatroska v1.0.0

Видео
Идентификатор : 1
Формат : AVC
Формат/Информация : Advanced Video Codec
Профиль формата : [email protected]
Параметр CABAC формата : Да
Параметр ReFrames формата : 4 кадра
Идентификатор кодека : V_MPEG4/ISO/AVC
Продолжительность : 42 м.
Битрейт : 4041 Кбит/сек
Ширина : 1280 пикселей
Высота : 720 пикселей
Соотношение сторон : 16:9
Режим частоты кадров : Постоянный
Частота кадров : 23,976 кадра/сек
Цветовое пространство : YUV
Субдискретизация насыщенности : 4:2:0
Битовая глубина : 8 бит
Тип развёртки : Прогрессивная
Бит/(Пиксели*Кадры) : 0.183
Размер потока : 1,18 Гбайт (82%)
Библиотека кодирования : x264 core 112 r1834 a51816a
Настройки программы : cabac=1 / ref=1 / deblock=1:0:0 / analyse=0x3:0x113 / me=hex / subme=7 / psy=1 / psy_rd=1.00:0.00 / mixed_ref=0 / me_range=16 / chroma_me=1 / trellis=1 / 8x8dct=1 / cqm=0 / deadzone=21,11 / fast_pskip=1 / chroma_qp_offset=-2 / threads=6 / sliced_threads=0 / nr=0 / decimate=1 / interlaced=0 / constrained_intra=0 / bframes=3 / b_pyramid=2 / b_adapt=1 / b_bias=0 / direct=1 / weightb=1 / open_gop=0 / weightp=2 / keyint=250 / keyint_min=25 / scenecut=40 / intra_refresh=0 / rc_lookahead=40 / rc=2pass / mbtree=1 / bitrate=4041 / ratetol=1.0 / qcomp=0.60 / qpmin=0 / qpmax=51 / qpstep=4 / cplxblur=20.0 / qblur=0.5 / ip_ratio=1.40 / aq=1:1.00
Default : Да
Forced : Нет

Аудио #1
Идентификатор : 2
Формат : AC-3
Формат/Информация : Audio Coding 3
Расширение режима : CM (complete main)
Параметр Endianness формата : Big
Идентификатор кодека : A_AC3
Продолжительность : 42 м.
Вид битрейта : Постоянный
Битрейт : 384 Кбит/сек
Каналы : 2 канала
Расположение каналов : Front: L R
Частота : 48,0 КГц
Битовая глубина : 16 бит
Метод сжатия : С потерями
Размер потока : 117 Мбайт (8%)
Default : Да
Forced : Нет

Аудио #2
Идентификатор : 3
Формат : AC-3
Формат/Информация : Audio Coding 3
Расширение режима : CM (complete main)
Параметр Endianness формата : Big
Идентификатор кодека : A_AC3
Продолжительность : 42 м.
Вид битрейта : Постоянный
Битрейт : 384 Кбит/сек
Каналы : 2 канала
Расположение каналов : Front: L R
Частота : 48,0 КГц
Битовая глубина : 16 бит
Метод сжатия : С потерями
Размер потока : 117 Мбайт (8%)
Default : Нет
Forced : Нет
   
Торрент: Зарегистрирован [05 авг 2013, 20:04] За каждые 2 ГБ. аплоада (сидирования) этого торрента начисляется бонус: 0.001 Скачать торрент
Скачать торрент
[ Размер 47.4 КБ / Просмотров 76 ]

Статус:
 
Приватный: Нет (DHT включён)
Размер: 18.37 ГБ (19 720 537 744 байт)
   
Последний раз редактировалось kasgaez 09 апр 2013, 08:31, всего редактировалось 1 раз.
Аватара пользователя
Прохожий
Прохожий
 
Раздал: 3.2 ТБ
Скачал: 515.93 ГБ
Ратио: 6.842
Сообщения: 27
Зарегистрирован: 11 май 2010, 06:08
ТегиКульт, Cult, все серии, скачать в хорошем качестве

  • Похожие торренты
    Ответы
    Просмотры
    Последнее сообщение

Re: Культ / Cult (Натан Хоуп/Nathan Hope) [1 сезон, серии 1-6 из 13][2013,Драма, триллер, детектив, WEB-DLRip 720p][LostFilm]

Сообщение Фаромир брат » 04 апр 2013, 17:51

обновил или что непонятно :? отпишись в теме если обновляешь релиз
Аватара пользователя

Супермодератор
Супермодератор
 
Раздал: 24.34 ТБ
Скачал: 1.72 ТБ
Ратио: 20.884
Сообщения: 7936
Фото: 127
Зарегистрирован: 26 ноя 2012, 17:20
Medals: 2
1000 раздач! (1) Меценат №2 (1)


Вернуться в Зарубежные сериалы HD (720p/1080p/Remux)

Кто сейчас на конференции

Зарегистрированные пользователи: нет зарегистрированных пользователей

cron
Ресурс не предоставляет электронные версии произведений, а занимается лишь коллекционированием и каталогизацией ссылок, присылаемых и публикуемых на форуме нашими читателями. Если вы являетесь правообладателем какого-либо представленного материала и не желаете чтобы ссылка на него находилась в нашем каталоге, свяжитесь с нами и мы незамедлительно удалим её. Файлы для обмена на трекере предоставлены пользователями сайта, и администрация не несёт ответственности за их содержание. Просьба не заливать файлы, защищенные авторскими правами, а также файлы нелегального содержания!
cron