Тайны Смолвиля / Smallville (Сезон: 6. Серии: 22 из 22) (Альфред Гоф / Alfred Gough, Майлз Миллар / Miles Millar) [2006-2007, фантастика, драма. BDRip] [720p] скачать торрент

Зарубежные сериалы, иностранные сериалы, в хорошем качестве, 720p, 1080p, Remux, HDTV

Модератор: Модераторы видео

  • Статистика раздачи
Размер: 49.87 ГБ   |  Зарегистрирован: 20 мар 2013, 00:08   |   .torrent скачан: 4 раз
Сидеров: 0  [ 0 байт/сек ]     Личеров: 0  [ 0 байт/сек ]  
Список файлов : Кто скачал : Раздают : Скачивают : Кто благодарил : История : Не раздающие : Запрашивали сидеров : Внешние трекеры 
  

Тайны Смолвиля / Smallville (Сезон: 6. Серии: 22 из 22) (Альфред Гоф / Alfred Gough, Майлз Миллар / Miles Millar) [2006-2007, фантастика, драма. BDRip] [720p]

Сообщение L Lawliet » 20 мар 2013, 00:09

Тайны Смолвиля
(Smallville)



Название: Тайны Смолвиля
Оригинальное название: Smallville
Дата выхода: 2006-2007
Страна: США, Канада
Жанр: фантастика, драма
Сезон: 6
Количество серий: 22
Продолжительность серии: 00:43:00
Перевод: Профессиональный (многоголосый, закадровый) (СТС) + профессиональный (многоголосый, закадровый) (AXN-Sci-Fi)
Субтитры: русские, английские


Режиссёр: Альфред Гоф / Alfred Gough, Майлз Миллар / Miles Millar


В ролях: Том Уэллинг / Tom Welling, Майкл Розенбаум / Michael Rosenbaum, Эллисон Мэк / Allison Mack, Кристин Кройк / Kristin Kreuk, Аннет О`Тул / Annette O'Toole, Джон Шнайдер / John Schneider, Джон Гловер / John Glover, Сэм Джонс III / Sam Jones III


Описание:"Тайны Смолвиля" - новый фантастический сериал о Супермэне.

На этот раз сюжет сфокусирован на подростковом периоде жизни Кларка Кента. Всё начинается с того, что в 1989 году, после метеоритного дождя в городе Смолвиль появляется маленький ребёнок - Кларк Кент.

Наши дни. Кларк учится в школе. Его удивительные способности заставляют, всё чаше задуматься о том кто он есть. К тому же он увлечён своей одноклассницей - Ланой Лэнг, чьи родители погибли во время метеоритного дождя. Это обстоятельство существенно осложняет их взаимоотношения. Заботливые родители Кларка пытаются любым путём сохранить его тайну, даже запрещают ему играть в школьной футбольной команде.

Однажды Кларк спасает жизнь молодого бизнесмена Лекса Лютера, когда его машина, потеряв управление, падает с моста в реку. С этого момента и начинается череда разных приключений Кларка.





Качество: BDRip 720p
Формат видео: MKV
Видео: MPEG4/AVC, 1280x720 (16:9), 23.976fps, ~ 6 700 kbps, 0.305 bit/pixel
Аудио #1: Russian; AC3, 48 KHz. 16 bit, 2 ch, 192 kbps (многоголосый, закадровый AXN-Sci-Fi)
Аудио #2: Russian; AC3, 48 KHz. 16 bit, 2 ch, 192 kbps (многоголосый, закадровый СТС)
Аудио #2: English; AC3, 48 KHz, 16 bit, 6 ch, 640 kbps

General
Unique ID : 214328778048228488896038479580456875819 (0xA13E389DDB4B8D808F10A0191F3CF72B)
Complete name : Smallville.s06.720p.Bluray.2xRus.Eng.Sub\Smallville.s06e01.Zod.720p.Bluray.2xRus.Eng.Sub.mkv
Format : Matroska
Format version : Version 2
File size : 2.32 GiB
Duration : 42mn 46s
Overall bit rate : 7 775 Kbps
Movie name : Smallville Season 06 Episode 01 Zod - Зод [Russian - AXN-Sci-Fi | CTC + English + Sub]
Encoded date : UTC 2012-05-03 18:03:31
Writing application : mkvmerge v5.2.1 ('A Far Off Place') built on Jan 2 2012 23:21:10
Writing library : libebml v1.2.3 + libmatroska v1.3.0

Video
ID : 1
Format : AVC
Format/Info : Advanced Video Codec
Format profile : [email protected]
Format settings, CABAC : Yes
Format settings, ReFrames : 9 frames
Format settings, GOP : M=7, N=48
Codec ID : V_MPEG4/ISO/AVC
Duration : 42mn 46s
Bit rate : 6 750 Kbps
Width : 1 280 pixels
Height : 720 pixels
Display aspect ratio : 16:9
Frame rate : 23.976 fps
Color space : YUV
Chroma subsampling : 4:2:0
Bit depth : 8 bits
Scan type : Progressive
Bits/(Pixel*Frame) : 0.305
Stream size : 1.97 GiB (85%)
Title : Smallville S06E01 Zod
Writing library : x264 core 114 r1900 60ef1f8
Encoding settings : cabac=1 / ref=9 / deblock=1:-3:-3 / analyse=0x3:0x113 / me=umh / subme=9 / psy=1 / psy_rd=1.10:0.10 / mixed_ref=1 / me_range=32 / chroma_me=1 / trellis=1 / 8x8dct=1 / cqm=0 / deadzone=21,11 / fast_pskip=0 / chroma_qp_offset=-3 / threads=7 / sliced_threads=0 / nr=0 / decimate=0 / interlaced=0 / constrained_intra=0 / bframes=6 / b_pyramid=2 / b_adapt=1 / b_bias=0 / direct=1 / weightb=1 / open_gop=0 / weightp=2 / keyint=250 / keyint_min=23 / scenecut=40 / intra_refresh=0 / rc_lookahead=40 / rc=2pass / mbtree=1 / bitrate=6750 / ratetol=1.0 / qcomp=0.60 / qpmin=0 / qpmax=69 / qpstep=4 / cplxblur=20.0 / qblur=0.5 / ip_ratio=1.40 / aq=1:0.80
Language : English

Audio #1
ID : 2
Format : AC-3
Format/Info : Audio Coding 3
Mode extension : CM (complete main)
Codec ID : A_AC3
Duration : 42mn 46s
Bit rate mode : Constant
Bit rate : 192 Kbps
Channel(s) : 2 channels
Channel positions : Front: L R
Sampling rate : 48.0 KHz
Bit depth : 16 bits
Compression mode : Lossy
Stream size : 58.8 MiB (2%)
Title : MVO AXN Sci-Fi @ AC3 2.0 192 kbps
Language : Russian

Audio #2
ID : 3
Format : AC-3
Format/Info : Audio Coding 3
Mode extension : CM (complete main)
Codec ID : A_AC3
Duration : 42mn 46s
Bit rate mode : Constant
Bit rate : 192 Kbps
Channel(s) : 2 channels
Channel positions : Front: L R
Sampling rate : 48.0 KHz
Bit depth : 16 bits
Compression mode : Lossy
Stream size : 58.8 MiB (2%)
Title : MVO CTC @ AC3 2.0 192 kbps
Language : Russian

Audio #3
ID : 4
Format : AC-3
Format/Info : Audio Coding 3
Mode extension : CM (complete main)
Codec ID : A_AC3
Duration : 42mn 46s
Bit rate mode : Constant
Bit rate : 640 Kbps
Channel(s) : 6 channels
Channel positions : Front: L C R, Side: L R, LFE
Sampling rate : 48.0 KHz
Bit depth : 16 bits
Compression mode : Lossy
Stream size : 196 MiB (8%)
Title : Original @ AC3 5.1 640 kbps
Language : English

Text #1
ID : 5
Format : UTF-8
Codec ID : S_TEXT/UTF8
Codec ID/Info : UTF-8 Plain Text
Title : Smallville Russia
Language : Russian

Text #2
ID : 6
Format : UTF-8
Codec ID : S_TEXT/UTF8
Codec ID/Info : UTF-8 Plain Text
Title : Original
Language : English


by L Lawliet
   
Торрент: Зарегистрирован [20 мар 2013, 00:08] За каждые 2 ГБ. аплоада (сидирования) этого торрента начисляется бонус: 0.001 Скачать торрент
Скачать торрент
[ Размер 251.74 КБ / Просмотров 75 ]

Статус:
 
Приватный: Нет (DHT включён)
Размер: 49.87 ГБ (53 551 895 310 байт)
   
Играйте только в хорошее ©

:gamer:
Аватара пользователя
Серьезный пир
Серьезный пир
 
Раздал: 554.58 ГБ
Скачал: 593.54 ГБ
Ратио: 1.024
Сообщения: 225
Зарегистрирован: 18 июн 2010, 20:05
Medals: 1
1 место (1)
  • Личное сообщение
  • ICQ

Вернуться в Зарубежные сериалы HD (720p/1080p/Remux)

Кто сейчас на конференции

Зарегистрированные пользователи: нет зарегистрированных пользователей

Ресурс не предоставляет электронные версии произведений, а занимается лишь коллекционированием и каталогизацией ссылок, присылаемых и публикуемых на форуме нашими читателями. Если вы являетесь правообладателем какого-либо представленного материала и не желаете чтобы ссылка на него находилась в нашем каталоге, свяжитесь с нами и мы незамедлительно удалим её. Файлы для обмена на трекере предоставлены пользователями сайта, и администрация не несёт ответственности за их содержание. Просьба не заливать файлы, защищенные авторскими правами, а также файлы нелегального содержания!
cron