Игра престолов / Game of Thrones / [Сезон: 2] [Серии: 1-10] (Дэвид Бениофф, Д.Б. Уайсс/David Benioff, DB Weiss) [2012, Фэнтези, Драма, HDTV 1080i][Alexfilm + LostFilm), Ukr (UATeam) + Original] скачать торрент

Зарубежные сериалы, иностранные сериалы, в хорошем качестве, 720p, 1080p, Remux, HDTV

Модератор: Модераторы видео

  • Статистика раздачи
Размер: 56.78 ГБ   |  Зарегистрирован: 16 мар 2013, 01:02   |   .torrent скачан: 27 раз
Сидеров: 11  [ 0 байт/сек ]     Личеров: 1  [ 0 байт/сек ]  
Список файлов : Кто скачал : Раздают : Скачивают : Кто благодарил : История : Не раздающие : Запрашивали сидеров : Внешние трекеры 
  

Игра престолов / Game of Thrones / [Сезон: 2] [Серии: 1-10] (Дэвид Бениофф, Д.Б. Уайсс/David Benioff, DB Weiss) [2012, Фэнтези, Драма, HDTV 1080i][Alexfilm + LostFilm), Ukr (UATeam) + Original]

Сообщение Фаромир брат » 16 мар 2013, 01:02

Игра престолов / Game of Thrones

Год выпуска: 2012
Страна: США
Жанр: Фэнтези, Драма
Продолжительность: 60 минут
Перевод:
  • профессиональный многоголосый закадровый (Alexfilm)
  • профессиональный многоголосый закадровый (LostFilm)
  • Оригинальная дорожка: английская
Русские субтитры: есть
Субтитры: Russian (Forced), Russian (Dara, Opel), Russian (7kingdoms.ru), Ukrainian (Notabenoid), English

Режиссёр: Дэвид Бениофф, Д.Б. Уайсс
В ролях: Шон Бин, Николай Костер-Вальдау, Лина Хиди, Айэйн Глен, Питер Динклэйдж, Эмилия Кларк, Мишель Фэйрли, Эйден Гиллен, Кит Харингтон, Марк Эдди
Описание: В Вестеросе наступила осень — предвестник долгой зимы, когда Белые ходоки пробудятся ото сна. Но Стена и её защитники позабыты: три короля претендуют на Железный трон и два верховных лорда провозгласили себя королями над своими землями. Никто из них не желает заключить союзы, и каждый считает свое право на трон священным. И воцарился над миром кровавый хаос войны. И началась великая битва, в которой наградою победителю станет Железный Трон Семи Королевств. Страшные настали времена — времена отваги и отмщения, интриги и магии. Ныне дева повстречает безумца, а брат занесет меч на брата. Ныне убитые восстанут — и пойдут тропою Тьмы. Ныне вонзится холодная сталь в холодные сердца. Ныне грядет предначертанная пророчеством битва Королей…


Качество: HDTV 1080i
Источник: Game of Thrones S01 1080i HDTV MPEG-2 DD5.1-CtrlHD
Формат: TS
Видео кодек: MPEG2
Аудиокодек: AC3
Видео: 1920x1080i at 29.970 fps, MPEG-2, ~12.4 Mbps avg, 0,199 Bits/Pixel
Аудио: Russian: 48 kHz, AC3, 3/2 (L,C,R,l,r) + LFE ch, ~384.00 kbps avg |Многоголосый закадровый, AlexFilm|
Russian: 48 kHz, AC3, 3/2 (L,C,R,l,r) + LFE ch, ~384.00 kbps avg |Многоголосый закадровый, LostFilm|
Ukrainian: 48 kHz, AC3, 3/2 (L,C,R,l,r) + LFE ch, ~384.00 kbps avg |Многоголосый закадровый, UATEAM|
English: 48 kHz, AC3, 3/2 (L,C,R,l,r) + LFE ch, ~384.00 kbps avg |Оригинал|
Формат субтитров: srt, ass
General
ID : 1 (0x1)
Complete name : Game.of.Thrones.S02E01.1080i.HDTV.2xRus.Ukr.Eng.HDCLUB.ts
Format : MPEG-TS
File size : 5.51 GiB
Duration : 52mn 39s
Overall bit rate mode : Variable
Overall bit rate : 15.0 Mbps
Maximum Overall bit rate : 35.5 Mbps

Video
ID : 4113 (0x1011)
Menu ID : 1 (0x1)
Format : MPEG Video
Format version : Version 2
Format profile : [email protected]
Format settings, BVOP : Yes
Format settings, Matrix : Default
Codec ID : 2
Duration : 52mn 39s
Bit rate mode : Variable
Bit rate : 12.7 Mbps
Maximum bit rate : 18.0 Mbps
Width : 1 920 pixels
Height : 1 080 pixels
Display aspect ratio : 16:9
Frame rate : 29.970 fps
Color space : YUV
Chroma subsampling : 4:2:0
Bit depth : 8 bits
Compression mode : Lossy
Bits/(Pixel*Frame) : 0.204
Stream size : 4.67 GiB (85%)

Audio #1
ID : 4352 (0x1100)
Menu ID : 1 (0x1)
Format : AC-3
Format/Info : Audio Coding 3
Mode extension : CM (complete main)
Format settings, Endianness : Big
Codec ID : 129
Duration : 52mn 9s
Bit rate mode : Constant
Bit rate : 384 Kbps
Channel(s) : 6 channels
Channel positions : Front: L C R, Side: L R, LFE
Sampling rate : 48.0 KHz
Bit depth : 16 bits
Compression mode : Lossy
Delay relative to video : -33ms
Stream size : 143 MiB (3%)
Language : Russian

Audio #2
ID : 4353 (0x1101)
Menu ID : 1 (0x1)
Format : AC-3
Format/Info : Audio Coding 3
Codec ID : 129
Duration : 52mn 39s
Bit rate : 384 Kbps
Channel(s) : 5 channels
Sampling rate : 48.0 KHz
Compression mode : Lossy
Delay relative to video : -33ms
Stream size : 145 MiB (3%)
Language : Russian

Audio #3
ID : 4354 (0x1102)
Menu ID : 1 (0x1)
Format : AC-3
Format/Info : Audio Coding 3
Codec ID : 129
Duration : 52mn 39s
Bit rate : 384 Kbps
Channel(s) : 5 channels
Sampling rate : 48.0 KHz
Compression mode : Lossy
Delay relative to video : -33ms
Stream size : 145 MiB (3%)
Language : Ukrainian

Audio #4
ID : 4355 (0x1103)
Menu ID : 1 (0x1)
Format : AC-3
Format/Info : Audio Coding 3
Mode extension : CM (complete main)
Format settings, Endianness : Big
Codec ID : 129
Duration : 52mn 9s
Bit rate mode : Constant
Bit rate : 384 Kbps
Channel(s) : 6 channels
Channel positions : Front: L C R, Side: L R, LFE
Sampling rate : 48.0 KHz
Bit depth : 16 bits
Compression mode : Lossy
Delay relative to video : -33ms
Stream size : 143 MiB (3%)
Language : English

Text #1
ID : 4113 (0x1011)-CC1
Menu ID : 1 (0x1)
Format : EIA-608
Muxing mode : A/53 / DTVCC Transport
Muxing mode, more info : Muxed in Video #1
Duration : 52mn 39s
Bit rate mode : Constant
Stream size : 0.00 Byte (0%)

Text #2
ID : 4113 (0x1011)-CC3
Menu ID : 1 (0x1)
Format : EIA-608
Muxing mode : A/53 / DTVCC Transport
Muxing mode, more info : Muxed in Video #1
Duration : 52mn 39s
Bit rate mode : Constant
Stream size : 0.00 Byte (0%)

Text #3
ID : 4113 (0x1011)-1
Menu ID : 1 (0x1)
Format : EIA-708
Muxing mode : A/53 / DTVCC Transport
Muxing mode, more info : Muxed in Video #1
Duration : 52mn 39s
Bit rate mode : Constant
Stream size : 0.00 Byte (0%)

Text #4
ID : 4113 (0x1011)-2
Menu ID : 1 (0x1)
Format : EIA-708
Muxing mode : A/53 / DTVCC Transport
Muxing mode, more info : Muxed in Video #1
Duration : 52mn 39s
Bit rate mode : Constant
Stream size : 0.00 Byte (0%)
01: The North Remembers / Север помнит
02: The Night Lands / Ночные земли
03: What Is Dead May Never Die / То, что мертво, умереть не может
04: Garden of Bones / Сад костей
05: The Ghost of Harrenhal / Призрак Харренхола
06: The Old Gods and the New / Боги старые и новые
07: A Man Without Honor / Человек без чести
08: The Prince of Winterfell / Принц Винтерфелла
09: Blackwater / Черноводная
10: Valar Morghulis / Валар Моргулис
   
Торрент: Зарегистрирован [16 мар 2013, 01:02] За каждые 2 ГБ. аплоада (сидирования) этого торрента начисляется бонус: 0.001 Золотая раздача - Скачанное не учитывается на 100% Скачать торрент
Скачать торрент
[ Размер 290.64 КБ / Просмотров 215 ]

Статус:
 
Приватный: Нет (DHT включён)
Размер: 56.78 ГБ (60 970 379 719 байт)
   
Аватара пользователя

Супермодератор
Супермодератор
 
Раздал: 24.34 ТБ
Скачал: 1.72 ТБ
Ратио: 20.884
Сообщения: 7936
Фото: 127
Зарегистрирован: 26 ноя 2012, 17:20
Medals: 2
1000 раздач! (1) Меценат №2 (1)

  • Похожие торренты
    Ответы
    Просмотры
    Последнее сообщение

Вернуться в Зарубежные сериалы HD (720p/1080p/Remux)

Кто сейчас на конференции

Зарегистрированные пользователи: нет зарегистрированных пользователей

Ресурс не предоставляет электронные версии произведений, а занимается лишь коллекционированием и каталогизацией ссылок, присылаемых и публикуемых на форуме нашими читателями. Если вы являетесь правообладателем какого-либо представленного материала и не желаете чтобы ссылка на него находилась в нашем каталоге, свяжитесь с нами и мы незамедлительно удалим её. Файлы для обмена на трекере предоставлены пользователями сайта, и администрация не несёт ответственности за их содержание. Просьба не заливать файлы, защищенные авторскими правами, а также файлы нелегального содержания!
cron