Игроки / Ballers / Сезон: 1 / Серии: 3 из 10 (Питер Берг) [2015, Драма, комедия, HDTVRip] MVO (SDI Media) скачать торрент

Зарубежные сериалы, иностранные сериалы, с хорошим переводом, все серии, новые серии, все сезоны

Модератор: Модераторы видео

  • Статистика раздачи
Размер: 1.24 ГБ   |  Зарегистрирован: 07 июл 2015, 22:41   |   .torrent скачан: 3 раз
Сидеров: 0  [ 0 байт/сек ]     Личеров: 0  [ 0 байт/сек ]  
Список файлов : Кто скачал : Раздают : Скачивают : Кто благодарил : История : Не раздающие : Запрашивали сидеров : Внешние трекеры 
  

Игроки / Ballers / Сезон: 1 / Серии: 3 из 10 (Питер Берг) [2015, Драма, комедия, HDTVRip] MVO (SDI Media)

Сообщение Фаромир брат » 30 июн 2015, 20:33

Игроки / Ballers

Год выпуска: 2015
Страна: США
Жанр: Драма, Комедия
Продолжительность: 00:30:00
Перевод: Профессиональный (многоголосый закадровый) SDI Media по заказу Amedia
Режиссёр: Питер Берг
В ролях: Дуэйн Джонсон, Джасмин Саймон, Донован Картер, Роб Кордри, Трой Гэрити, Омар Бенсон Миллер, Джон Дэвид Вашингтон, Анабель Акоста, Дуле Хилл, Ариэль Кеббел

Описание: Сюжет сериала разворачивается вокруг группы футболистов, их семей, друзей и тренеров..


Качество: HDTVRip
Формат: AVI
Видео: 720 x 400 (16:9), XviD, 23.976 fps, 1799 Kbps
Аудио: MP3, 44.1 kHz, 2 ch, 128 kbps
Субтитры: Отсутствуют
General
Complete name : D:\Torrent\1gr0ki.s01e01.Amedia.HDTVRip.avi
Format : AVI
Format/Info : Audio Video Interleave
File size : 416 MiB
Duration : 30mn 1s
Overall bit rate : 1 937 Kbps
Writing application : VirtualDubMod 1.5.10.2 (build 2540/release)
Writing library : VirtualDubMod build 2540/release

Video
ID : 0
Format : MPEG-4 Visual
Format profile : Advanced [email protected]
Format settings, BVOP : 2
Format settings, QPel : No
Format settings, GMC : No warppoints
Format settings, Matrix : Custom
Codec ID : XVID
Codec ID/Hint : XviD
Duration : 30mn 1s
Bit rate : 1 799 Kbps
Width : 720 pixels
Height : 400 pixels
Display aspect ratio : 16:9
Frame rate : 23.976 fps
Color space : YUV
Chroma subsampling : 4:2:0
Bit depth : 8 bits
Scan type : Progressive
Compression mode : Lossy
Bits/(Pixel*Frame) : 0.261
Stream size : 386 MiB (93%)
Writing library : XviD 1.2.1 (UTC 2008-12-04)

Audio
ID : 1
Format : MPEG Audio
Format version : Version 1
Format profile : Layer 3
Codec ID : 55
Codec ID/Hint : MP3
Duration : 30mn 1s
Bit rate mode : Constant
Bit rate : 128 Kbps
Channel(s) : 2 channels
Sampling rate : 44.1 KHz
Compression mode : Lossy
Stream size : 27.5 MiB (7%)
Alignment : Split accross interleaves
Interleave, duration : 42 ms (1.00 video frame)
Interleave, preload duration : 500 ms

   
Торрент: Зарегистрирован [07 июл 2015, 22:41] Скачать торрент
Скачать торрент
О MediaGet
[ Размер 13.19 КБ / Просмотров 361 ]

Статус:
 
Приватный: Нет (DHT включён)
Размер: 1.24 ГБ (1 326 336 003 байт)
   
Аватара пользователя

Супермодератор
Супермодератор
 
Раздал: 24.31 ТБ
Скачал: 1.72 ТБ
Ратио: 20.886
Сообщения: 7917
Фото: 126
Зарегистрирован: 26 ноя 2012, 17:20
Medals: 2
1000 раздач! (1) Меценат №2 (1)

Re: Игроки / Ballers / Сезон: 1 / Серии: 3 из 10 (Питер Берг) [2015, Драма, комедия, HDTVRip] MVO (SDI Media)

Сообщение Фаромир брат » 07 июл 2015, 22:41

3 серия
Аватара пользователя

Супермодератор
Супермодератор
 
Раздал: 24.31 ТБ
Скачал: 1.72 ТБ
Ратио: 20.886
Сообщения: 7917
Фото: 126
Зарегистрирован: 26 ноя 2012, 17:20
Medals: 2
1000 раздач! (1) Меценат №2 (1)


Вернуться в Зарубежные сериалы Rip's

Кто сейчас на конференции

Зарегистрированные пользователи: нет зарегистрированных пользователей

Ресурс не предоставляет электронные версии произведений, а занимается лишь коллекционированием и каталогизацией ссылок, присылаемых и публикуемых на форуме нашими читателями. Если вы являетесь правообладателем какого-либо представленного материала и не желаете чтобы ссылка на него находилась в нашем каталоге, свяжитесь с нами и мы незамедлительно удалим её. Файлы для обмена на трекере предоставлены пользователями сайта, и администрация не несёт ответственности за их содержание. Просьба не заливать файлы, защищенные авторскими правами, а также файлы нелегального содержания!
cron