Девственница / Jane the Virgin / Сезон: 1 / Серии: 1-9 из 22 (Ута Бризвитц, Эдвард Орнелас) [2014, Комедия, драма, WEB-DLRip] MVO скачать торрент

Зарубежные сериалы, иностранные сериалы, с хорошим переводом, все серии, новые серии, все сезоны

Модератор: Модераторы видео

  • Статистика раздачи
Размер: 4.73 ГБ   |  Зарегистрирован: 30 июн 2015, 20:22   |   .torrent скачан: 1 раз
Сидеров: 0  [ 0 байт/сек ]     Личеров: 0  [ 0 байт/сек ]  
Список файлов : Кто скачал : Раздают : Скачивают : Кто благодарил : История : Не раздающие : Запрашивали сидеров : Внешние трекеры 
  

Девственница / Jane the Virgin / Сезон: 1 / Серии: 1-9 из 22 (Ута Бризвитц, Эдвард Орнелас) [2014, Комедия, драма, WEB-DLRip] MVO

Сообщение Фаромир брат » 30 июн 2015, 20:22

Девственница / Jane the Virgin

Год выпуска: 2014
Страна: США
Жанр: Комедия, драма
Продолжительность: 43 мин

Перевод: Профессиональный (многоголосый закадровый)

Режиссёр: Ута Бризвитц, Эдвард Орнелас

В ролях: Брайан ДаРе, Алано Миллер, Андреа Наведо, Рене Вайссер, Джастин Бальдони, Присцилла Барнс, Кармен Каррера

---------------------------------------------------------------------------------------------------------------------------------------------------------------------------------------------------

Описание: Джейн выросла под влиянием строгой латиноамериканской бабушки, которая с ранних лет учила внучку скромности и воздержанию.
Даже став красивой молодой женщиной, она оставалась целомудренной и пресекала все неприличные поползновения своего жениха. Но обычный поход
к гинекологу изменил всю жизнь Джейн. Она стала жертвой случайного искусственного оплодотворения! Мир перевернулся с ног на голову, и теперь ей
предстоит принять сложное решение, разобраться с шокированной родней, познакомиться с биологическим отцом малыша и сделать еще много такого, о
чем две недели назад она не могла и подумать.

---------------------------------------------------------------------------------------------------------------------------------------------------------------------------------------------------



Доп. информация: релиз от: SoulStudio

Сэмпл: http://multi-up.com/1020128

Качество: WEB-DLRip
Формат: AVI
Видео: 720x400 (16:9), 23.976 fps, 1 560 kbps
Аудио: MP3, 48.0 KHz, 2 ch, ~192 Kbps
Субтитры: нет
1. "Chapter One"
2. "Chapter Two"
3. "Chapter Three"
4. "Chapter Four"
5. "Chapter Five"
6. "Chapter Six"
7. "Chapter Seven"
8. "Chapter Eight"
9. "Chapter Nine"
10. "Chapter ten"
11. "Chapter eleven"
12. "Chapter twelve"
13. "Chapter thirteen"
Общее
Полное имя : D:\ШАРА\ФИЛЬМЫ\Jane.the.Virgin\jane.the.virgin.01.avi
Формат : AVI
Формат/Информация : Audio Video Interleave
Размер файла : 508 Мбайт
Продолжительность : 40 м.
Общий поток : 1761 Кбит/сек
Библиотека кодирования : VirtualDub build 35491/release

Видео

Идентификатор : 0
Формат : MPEG-4 Visual
Профиль формата : Advanced [email protected]
Параметр BVOP формата : 2
Параметр QPel формата : Нет
Параметр GMC формата : Без точки перехода
Параметр матрицы формата : Default (H.263)
Идентификатор кодека : XVID
Идентификатор кодека/Подсказка : XviD
Продолжительность : 40 м.
Битрейт : 1560 Кбит/сек
Ширина : 720 пикселей
Высота : 400 пикселей
Соотношение сторон : 16:9
Частота кадров : 23,976 кадра/сек
Цветовое пространство : YUV
Субдискретизация насыщенности : 4:2:0
Битовая глубина : 8 бит
Тип развёртки : Прогрессивная
Метод сжатия : С потерями
Бит/(Пиксели*Кадры) : 0.226
Размер потока : 450 Мбайт (89%)
Библиотека кодирования : XviD 1.2.1 (UTC 2008-12-04)

Аудио
Идентификатор : 1
Формат : MPEG Audio
Версия формата : Version 1
Профиль формата : Layer 3
Режим : Joint stereo
Расширение режима : MS Stereo
Идентификатор кодека : 55
Идентификатор кодека/Подсказка : MP3
Продолжительность : 40 м.
Вид битрейта : Постоянный
Битрейт : 192 Кбит/сек
Каналы : 2 канала
Частота : 48,0 КГц
Метод сжатия : С потерями
Размер потока : 55,4 Мбайт (11%)
Выравнивание : Разделение по промежуткам
Продолжительность промежутка : 42 мс. (1,00 видеокадр)
Время предзагрузки промежутка : 500 мс.
Библиотека кодирования : LAME3.99r
Настройки программы : -m j -V 4 -q 3 -lowpass 18.6 -b 192


   
Торрент: Зарегистрирован [30 июн 2015, 20:22] Скачать торрент
Скачать торрент
О MediaGet
[ Размер 13.2 КБ / Просмотров 378 ]

Статус:
 
Приватный: Нет (DHT включён)
Размер: 4.73 ГБ (5 077 110 006 байт)
   
Аватара пользователя

Супермодератор
Супермодератор
 
Раздал: 24.31 ТБ
Скачал: 1.72 ТБ
Ратио: 20.886
Сообщения: 7917
Фото: 126
Зарегистрирован: 26 ноя 2012, 17:20
Medals: 2
1000 раздач! (1) Меценат №2 (1)

  • Похожие торренты
    Ответы
    Просмотры
    Последнее сообщение

Вернуться в Зарубежные сериалы Rip's

Кто сейчас на конференции

Зарегистрированные пользователи: нет зарегистрированных пользователей

Ресурс не предоставляет электронные версии произведений, а занимается лишь коллекционированием и каталогизацией ссылок, присылаемых и публикуемых на форуме нашими читателями. Если вы являетесь правообладателем какого-либо представленного материала и не желаете чтобы ссылка на него находилась в нашем каталоге, свяжитесь с нами и мы незамедлительно удалим её. Файлы для обмена на трекере предоставлены пользователями сайта, и администрация не несёт ответственности за их содержание. Просьба не заливать файлы, защищенные авторскими правами, а также файлы нелегального содержания!
cron