(Disco, Pop, Instrumental) Modern Talking - All Instrumentals [Bootleg] [2003, FLAC (tracks), lossless] скачать торрент

Модератор: Модераторы музыки

  • Статистика раздачи
Размер: 549.44 МБ   |  Зарегистрирован: 03 окт 2014, 21:14   |   .torrent скачан: 208 раз
Сидеров: 112  [ 0 байт/сек ]     Личеров: 17  [ 0 байт/сек ]  
Список файлов : Кто скачал : Раздают : Скачивают : Кто благодарил : История : Не раздающие : Запрашивали сидеров : Внешние трекеры 
  

(Disco, Pop, Instrumental) Modern Talking - All Instrumentals [Bootleg] [2003, FLAC (tracks), lossless]

Сообщение FaNaTiK » 03 окт 2014, 21:14

Исполнитель: Modern Talking
Альбом: All Instrumentals [Bootleg]
Страна: All world
Жанр: Disco, Pop, Instrumental
Год выхода: 2003
Формат аудио (тип рипа): FLAC
Битрейт: lossless
Продолжительность: 01:19:53


01. You're My Heart, You're My Soul 4:01
02. You Can Win If You Want 3:55
03. There's Too Much Blue In Missing You 4:41
04. Diamonds Never Made A Lady 3:50
05. The Night Is Yours The Night Is Mine 3:28
06. Lucky Guy 3:32
07. Cheri Cheri Lady 3:37
08. Brother Louie 4:06
09. Atlantis Is Calling (S.O.S. For Love) 3:59
10. Hey You 5:19
11. Geronimo's Cadillac 3:12
12. Jet Airliner 3:48
13. You're My Heart, You're My Soul '98 3:50
14. No Face No Name No Number 3:59
15. Win The Race 3:39
16. Cinderella Girl 3:34
17. Ready For The Victory 3:31
18. TV Makes The Superstar 3:44
SPECIAL BONUS TRACKS:
19. You're My Heart, You're My Soul (playback version) 3:30
20. You Can Win If You Want (playback version) 3:36
21. Cheri Cheri Lady (playback version) 3:58

Exact Audio Copy V1.0 beta 3 from 29. August 2011

EAC extraction logfile from 21. October 2012, 15:36

Modern Talking / All Instrumentals

Used drive : ASUS SDRW-08D1S-U Adapter: 3 ID: 0

Read mode : Secure
Utilize accurate stream : Yes
Defeat audio cache : Yes
Make use of C2 pointers : No

Read offset correction : 103
Overread into Lead-In and Lead-Out : No
Fill up missing offset samples with silence : Yes
Delete leading and trailing silent blocks : No
Null samples used in CRC calculations : Yes
Used interface : Installed external ASPI interface

Used output format : User Defined Encoder
Selected bitrate : 768 kBit/s
Quality : High
Add ID3 tag : No
Command line compressor : C:Program FilesExact Audio CopyFLACFLAC.EXE
Additional command line options : -6 -V -T "ARTIST=%artist%" -T "TITLE=%title%" -T "ALBUM=%albumtitle%" -T "DATE=%year%" -T "TRACKNUMBER=%tracknr%" -T "GENRE=%genre%" -T "COMMENT=%comment%" -T "BAND=%albuminterpret%" -T "ALBUMARTIST=%albuminterpret%" -T "COMPOSER=%composer%" %haslyrics%--tag-from-file=LYRICS="%lyricsfile%"%haslyrics% -T "DISCNUMBER=%cdnumber%" -T "TOTALDISCS=%totalcds%" -T "TOTALTRACKS=%numtracks%" %hascover%--picture="%coverfile%"%hascover% %source% -o %dest%

TOC of the extracted CD

Track | Start | Length | Start sector | End sector
---------------------------------------------------------
1 | 0:00.00 | 3:59.29 | 0 | 17953
2 | 3:59.29 | 3:40.47 | 17954 | 34500
3 | 7:40.01 | 4:31.02 | 34501 | 54827
4 | 12:11.03 | 3:46.62 | 54828 | 71839
5 | 15:57.65 | 3:28.36 | 71840 | 87475
6 | 19:26.26 | 3:31.04 | 87476 | 103304
7 | 22:57.30 | 3:36.16 | 103305 | 119520
8 | 26:33.46 | 4:05.44 | 119521 | 137939
9 | 30:39.15 | 3:55.74 | 137940 | 155638
10 | 34:35.14 | 5:05.13 | 155639 | 178526
11 | 39:40.27 | 3:13.71 | 178527 | 193072
12 | 42:54.23 | 3:50.04 | 193073 | 210326
13 | 46:44.27 | 3:50.13 | 210327 | 227589
14 | 50:34.40 | 3:57.68 | 227590 | 245432
15 | 54:32.33 | 3:38.27 | 245433 | 261809
16 | 58:10.60 | 3:33.09 | 261810 | 277793
17 | 61:43.69 | 3:29.59 | 277794 | 293527
18 | 65:13.53 | 3:44.31 | 293528 | 310358
19 | 68:58.09 | 3:28.44 | 310359 | 326002
20 | 72:26.53 | 3:32.55 | 326003 | 341957
21 | 75:59.33 | 3:53.63 | 341958 | 359495

Range status and errors

Selected range

Filename C:MODERN TALKING - InstrumentalsModern Talking - All Instrumentals.wav

Peak level 89.1 %
Extraction speed 1.7 X
Range quality 100.0 %
Test CRC 276F6EB5
Copy CRC 276F6EB5
Copy OK

No errors occurred

End of status report
   
Торрент: Зарегистрирован [03 окт 2014, 21:14] Скачать торрент
Скачать торрент
[ Размер 11.71 КБ / Просмотров 83 ]

Статус:
 
Приватный: Нет (DHT включён)
Размер: 549.44 МБ (576 132 176 байт)
   
Аватара пользователя

Модератор музыки
Модератор музыки
 
Раздал: 19.27 ТБ
Скачал: 756.17 МБ
Ратио: None.
Сообщения: 2044
Фото: 7
Зарегистрирован: 13 ноя 2013, 17:22
Откуда: Дмитров
Medals: 1
1000 раздач! (1)
  • Личное сообщение
  • Сайт

Вернуться в Lossless

Кто сейчас на конференции

Зарегистрированные пользователи: нет зарегистрированных пользователей

Ресурс не предоставляет электронные версии произведений, а занимается лишь коллекционированием и каталогизацией ссылок, присылаемых и публикуемых на форуме нашими читателями. Если вы являетесь правообладателем какого-либо представленного материала и не желаете чтобы ссылка на него находилась в нашем каталоге, свяжитесь с нами и мы незамедлительно удалим её. Файлы для обмена на трекере предоставлены пользователями сайта, и администрация не несёт ответственности за их содержание. Просьба не заливать файлы, защищенные авторскими правами, а также файлы нелегального содержания!
cron