(Pop) Celine Dion - Loved Me Back to Life (Deluxe Edition) [2013, FLAC (tracks+.cue), lossless] скачать торрент

Модератор: Модераторы музыки

  • Статистика раздачи
Размер: 476.7 МБ   |  Зарегистрирован: 30 ноя 2013, 18:03   |   .torrent скачан: 2 раз
Сидеров: 70  [ 0 байт/сек ]     Личеров: 0  [ 0 байт/сек ]  
Список файлов : Кто скачал : Раздают : Скачивают : Кто благодарил : История : Не раздающие : Запрашивали сидеров : Внешние трекеры 
  

(Pop) Celine Dion - Loved Me Back to Life (Deluxe Edition) [2013, FLAC (tracks+.cue), lossless]

Сообщение Фаромир брат » 30 ноя 2013, 18:03


Celine Dion / Loved Me Back to Life (Deluxe Edition)



Жанр: Pop
Год издания: 2013
Издатель (лейбл): Columbia Records
Страна: Canada
Аудиокодек: FLAC (*.flac)
Тип рипа: tracks+.cue
Битрейт аудио: lossless
Продолжительность: 01:00:21
Наличие сканов в содержимом раздачи: да
Треклист:
01. Loved Me Back to Life 3:50
02. Somebody Loves Somebody 3:44
03. Incredible (with Ne-Yo) 3:54
04. Water and a Flame 3:44
05. Breakaway 4:38
06. Save Your Soul 4:11
07. Didn't Know Love 3:37
08. Thank You 4:02
09. Overjoyed (with Stevie Wonder) 4:06
10. Thankful 3:54
11. At Seventeen 4:31
12. Always Be Your Girl 4:16
13. Unfinished Songs 3:49


Deluxe and special edition contains following bonus tracks:
14. How Do You Keep the Music Playing
15. Lullabye (Goodnight, My Angel)

Exact Audio Copy V1.0 beta 3 from 29. August 2011

EAC extraction logfile from 18. November 2013, 15:44

Celine Dion / Loved Me Back to Life

Used drive : ATAPI iHAP122 9 Adapter: 1 ID: 1

Read mode : Secure
Utilize accurate stream : Yes
Defeat audio cache : Yes
Make use of C2 pointers : No

Read offset correction : 6
Overread into Lead-In and Lead-Out : No
Fill up missing offset samples with silence : Yes
Delete leading and trailing silent blocks : No
Null samples used in CRC calculations : Yes
Used interface : Native Win32 interface for Win NT & 2000
Gap handling : Appended to previous track

Used output format : User Defined Encoder
Selected bitrate : 1024 kBit/s
Quality : High
Add ID3 tag : No
Command line compressor : C:\Program Files (x86)\FLAC\flac.exe
Additional command line options : -8 -V -T "ARTIST=%artist%" -T "TITLE=%title%" -T "ALBUM=%albumtitle%" -T "DATE=%year%" -T "TRACKNUMBER=%tracknr%" -T "GENRE=%genre%" -T "PERFORMER=%albuminterpret%" -T "COMPOSER=%composer%" %haslyrics%--tag-from-file=LYRICS="%lyricsfile%"%haslyrics% -T "ALBUMARTIST=%albumartist%" -T "DISCNUMBER=%cdnumber%" -T "TOTALDISCS=%totalcds%" -T "TOTALTRACKS=%numtracks%" -T "COMMENT=%comment%" %source% -o %dest%

TOC of the extracted CD

Track | Start | Length | Start sector | End sector
---------------------------------------------------------
1 | 0:00.00 | 3:50.66 | 0 | 17315
2 | 3:50.66 | 3:42.01 | 17316 | 33966
3 | 7:32.67 | 3:56.15 | 33967 | 51681
4 | 11:29.07 | 3:42.37 | 51682 | 68368
5 | 15:11.44 | 4:38.33 | 68369 | 89251
6 | 19:50.02 | 3:48.36 | 89252 | 106387
7 | 23:38.38 | 3:36.06 | 106388 | 122593
8 | 27:14.44 | 3:59.14 | 122594 | 140532
9 | 31:13.58 | 4:04.36 | 140533 | 158868
10 | 35:18.19 | 3:56.45 | 158869 | 176613
11 | 39:14.64 | 4:29.21 | 176614 | 196809
12 | 43:44.10 | 4:14.38 | 196810 | 215897
13 | 47:58.48 | 3:41.59 | 215898 | 232531
14 | 51:40.32 | 4:22.69 | 232532 | 252250
15 | 56:03.26 | 4:18.08 | 252251 | 271608

Track 1

Filename C:\Users\Nightjar\Desktop\Celine Dion - Loved Me Back to Life (2013) [FLAC]\01 Loved Me Back to Life.wav

Pre-gap length 0:00:02.00

Peak level 100.0 %
Extraction speed 3.7 X
Track quality 100.0 %
Test CRC 465E1827
Copy CRC 465E1827
Track not present in AccurateRip database
Copy OK

Track 2

Filename C:\Users\Nightjar\Desktop\Celine Dion - Loved Me Back to Life (2013) [FLAC]\02 Somebody Loves Somebody.wav

Pre-gap length 0:00:00.64

Peak level 100.0 %
Extraction speed 4.1 X
Track quality 100.0 %
Test CRC ABB83D84
Copy CRC ABB83D84
Track not present in AccurateRip database
Copy OK

Track 3

Filename C:\Users\Nightjar\Desktop\Celine Dion - Loved Me Back to Life (2013) [FLAC]\03 Incredible.wav

Pre-gap length 0:00:01.53

Peak level 100.0 %
Extraction speed 4.4 X
Track quality 100.0 %
Test CRC 2850C6D8
Copy CRC 2850C6D8
Track not present in AccurateRip database
Copy OK

Track 4

Filename C:\Users\Nightjar\Desktop\Celine Dion - Loved Me Back to Life (2013) [FLAC]\04 Water and a Flame.wav

Pre-gap length 0:00:00.97

Peak level 100.0 %
Extraction speed 4.7 X
Track quality 100.0 %
Test CRC 300F0630
Copy CRC 300F0630
Track not present in AccurateRip database
Copy OK

Track 5

Filename C:\Users\Nightjar\Desktop\Celine Dion - Loved Me Back to Life (2013) [FLAC]\05 Breakaway.wav

Pre-gap length 0:00:01.17

Peak level 100.0 %
Extraction speed 5.0 X
Track quality 100.0 %
Test CRC 56EE3E83
Copy CRC 56EE3E83
Track not present in AccurateRip database
Copy OK

Track 6

Filename C:\Users\Nightjar\Desktop\Celine Dion - Loved Me Back to Life (2013) [FLAC]\06 Save Your Soul.wav

Pre-gap length 0:00:00.85

Peak level 100.0 %
Extraction speed 5.3 X
Track quality 100.0 %
Test CRC 63F1A8C5
Copy CRC 63F1A8C5
Track not present in AccurateRip database
Copy OK

Track 7

Filename C:\Users\Nightjar\Desktop\Celine Dion - Loved Me Back to Life (2013) [FLAC]\07 Didn't Know Love.wav

Pre-gap length 0:00:00.97

Peak level 100.0 %
Extraction speed 5.3 X
Track quality 100.0 %
Test CRC 7AC4A2FF
Copy CRC 7AC4A2FF
Track not present in AccurateRip database
Copy OK

Track 8

Filename C:\Users\Nightjar\Desktop\Celine Dion - Loved Me Back to Life (2013) [FLAC]\08 Thank You.wav

Pre-gap length 0:00:01.00

Peak level 100.0 %
Extraction speed 5.8 X
Track quality 100.0 %
Test CRC 72A2E63A
Copy CRC 72A2E63A
Track not present in AccurateRip database
Copy OK

Track 9

Filename C:\Users\Nightjar\Desktop\Celine Dion - Loved Me Back to Life (2013) [FLAC]\09 Overjoyed.wav

Pre-gap length 0:00:01.13

Peak level 100.0 %
Extraction speed 5.9 X
Track quality 100.0 %
Test CRC 38B6A2BC
Copy CRC 38B6A2BC
Track not present in AccurateRip database
Copy OK

Track 10

Filename C:\Users\Nightjar\Desktop\Celine Dion - Loved Me Back to Life (2013) [FLAC]\10 Thankful.wav

Pre-gap length 0:00:01.02

Peak level 100.0 %
Extraction speed 6.2 X
Track quality 100.0 %
Test CRC 49914290
Copy CRC 49914290
Track not present in AccurateRip database
Copy OK

Track 11

Filename C:\Users\Nightjar\Desktop\Celine Dion - Loved Me Back to Life (2013) [FLAC]\11 At Seventeen.wav

Pre-gap length 0:00:01.06

Peak level 100.0 %
Extraction speed 6.3 X
Track quality 100.0 %
Test CRC 7DA6A7A5
Copy CRC 7DA6A7A5
Track not present in AccurateRip database
Copy OK

Track 12

Filename C:\Users\Nightjar\Desktop\Celine Dion - Loved Me Back to Life (2013) [FLAC]\12 Always Be Your Girl.wav

Pre-gap length 0:00:01.13

Peak level 100.0 %
Extraction speed 6.7 X
Track quality 100.0 %
Test CRC 4C2BC7E0
Copy CRC 4C2BC7E0
Track not present in AccurateRip database
Copy OK

Track 13

Filename C:\Users\Nightjar\Desktop\Celine Dion - Loved Me Back to Life (2013) [FLAC]\13 Unfinished Songs.wav

Pre-gap length 0:00:00.72

Peak level 100.0 %
Extraction speed 5.2 X
Track quality 99.9 %
Test CRC F7EE28FC
Copy CRC F7EE28FC
Track not present in AccurateRip database
Copy OK

Track 14

Filename C:\Users\Nightjar\Desktop\Celine Dion - Loved Me Back to Life (2013) [FLAC]\14 How Do You Keep the Music Playing.wav

Pre-gap length 0:00:01.73

Peak level 100.0 %
Extraction speed 5.7 X
Track quality 99.9 %
Test CRC 6E47A5D6
Copy CRC 6E47A5D6
Track not present in AccurateRip database
Copy OK

Track 15

Filename C:\Users\Nightjar\Desktop\Celine Dion - Loved Me Back to Life (2013) [FLAC]\15 Lullabye (Goodnight, My Angel).wav

Pre-gap length 0:00:01.17

Peak level 100.0 %
Extraction speed 7.2 X
Track quality 100.0 %
Test CRC 59F53702
Copy CRC 59F53702
Track not present in AccurateRip database
Copy OK

None of the tracks are present in the AccurateRip database

No errors occurred

End of status report

---- CUETools DB Plugin V2.1.4

[CTDB TOCID: Xvqx4ChRRy6.ReOXRaBUYHwZTlE-] found
Submit result: Xvqx4ChRRy6.ReOXRaBUYHwZTlE- has been confirmed
Track | CTDB Status
1 | (10/10) Accurately ripped
2 | (10/10) Accurately ripped
3 | (10/10) Accurately ripped
4 | (10/10) Accurately ripped
5 | (10/10) Accurately ripped
6 | ( 9/10) Accurately ripped
7 | (10/10) Accurately ripped
8 | (10/10) Accurately ripped
9 | (10/10) Accurately ripped
10 | (10/10) Accurately ripped
11 | (10/10) Accurately ripped
12 | (10/10) Accurately ripped
13 | (10/10) Accurately ripped
14 | (10/10) Accurately ripped
15 | (10/10) Accurately ripped

==== Log checksum A4831C4EDD0080C8C9A7086A1C7B084C26B01AB04039F89FC205D9D8F73E055A ====
   
Торрент: Зарегистрирован [30 ноя 2013, 18:03] Скачать торрент
Скачать торрент
[ Размер 20.47 КБ / Просмотров 59 ]

Статус:
 
Приватный: Нет (DHT включён)
Размер: 476.7 МБ (499 861 410 байт)
   
Аватара пользователя

Супермодератор
Супермодератор
 
Раздал: 24.34 ТБ
Скачал: 1.72 ТБ
Ратио: 20.885
Сообщения: 7935
Фото: 127
Зарегистрирован: 26 ноя 2012, 17:20
Medals: 2
1000 раздач! (1) Меценат №2 (1)

  • Похожие торренты
    Ответы
    Просмотры
    Последнее сообщение

Вернуться в Lossless

Кто сейчас на конференции

Зарегистрированные пользователи: нет зарегистрированных пользователей

Ресурс не предоставляет электронные версии произведений, а занимается лишь коллекционированием и каталогизацией ссылок, присылаемых и публикуемых на форуме нашими читателями. Если вы являетесь правообладателем какого-либо представленного материала и не желаете чтобы ссылка на него находилась в нашем каталоге, свяжитесь с нами и мы незамедлительно удалим её. Файлы для обмена на трекере предоставлены пользователями сайта, и администрация не несёт ответственности за их содержание. Просьба не заливать файлы, защищенные авторскими правами, а также файлы нелегального содержания!
cron