(Techno) Blumchen - Discography (9 Albums + 20 Singles) - 1995 - 2003, FLAC (image + .cue), lossless скачать торрент

Модератор: Модераторы музыки

  • Статистика раздачи
Размер: 8.88 ГБ   |  Зарегистрирован: 07 янв 2013, 13:26   |   .torrent скачан: 22 раз
Сидеров: 1  [ 0 байт/сек ]     Личеров: 1  [ 0 байт/сек ]  
Список файлов : Кто скачал : Раздают : Скачивают : Кто благодарил : История : Не раздающие : Запрашивали сидеров : Внешние трекеры 
  

(Techno) Blumchen - Discography (9 Albums + 20 Singles) - 1995 - 2003, FLAC (image + .cue), lossless

Сообщение Тося » 07 янв 2013, 13:27

Исполнитель: Blümchen
Альбом: Discography (9 Albums + 20 Singles)
Страна: Germany
Жанр: Techno
Год выпуска: 1995 - 2003
Формат: FLAC (image + .cue)
Битрейт аудио: lossless
Трэклист:

01. Herz an Herz (Herz in der Luft Radio Mix) 03:48
02. Herz an Herz (Langer Herzenswunsch Mix) 05:34
03. Herz an Herz (Herzensbrecher Abtanzmix) 06:54
Exact Audio Copy V0.99 prebeta 4 from 23. January 2008

EAC Auslese-Logdatei vom 15. Januar 2009, 1:34

Blümchen / Herz an Herz

Benutztes Laufwerk : HL-DT-STDVD-ROM GDR-H30N Adapter: 0 ID: 1

Lesemodus : Sicher
Benutze Accurate Stream : Ja
Audio Puffer abgeschaltet : Ja
Benutze C2 Fehlerinformationen : Nein

Leseoffset Korrektur : 6
Überlesen in das Lead-In und Lead-Out : Nein
Fülle fehlende Offsetsample mit Stille auf : Ja
Lösche führende und nachfolgende stille Blöcke : Nein
Null Samples gehen in CRC Berechnungen ein : Ja
Benutzte Schnittstelle : Installierte externe ASPI Schnittstelle

Benutztes Ausgabeformat : Interne WAV Routinen
Sampleformat : 44.100 Hz; 16 Bit; Stereo

TOC der ausgelesenen CD

Track | Start | Länge | Startsektor | Endsektor
-------------------------------------------------------
1 | 0:00.00 | 3:48.00 | 0 | 17099
2 | 3:48.00 | 5:34.25 | 17100 | 42174
3 | 9:22.25 | 6:54.07 | 42175 | 73231

Bereichsstatus und Fehler

Gewählter Bereich

Dateiname C:\Dokumente und Einstellungen\Boris\Eigene Dateien\Bluemchen - Diskografie\Maxi-Singles\1995 - Herz an Herz\Blümchen - Herz an Herz.wav

Spitzenpegel 97.3 %
Bereichsqualität 100.0 %
Kopie CRC 04200A76
Kopie OK

Keine Fehler aufgetreten

AccurateRip Übersicht

Track 1 kann nicht als akkurat verifiziert werden (Zuversicht 4) [07812D5D], AccurateRip lieferte [18A7DF0F]
Track 2 kann nicht als akkurat verifiziert werden (Zuversicht 4) [DAFE8575], AccurateRip lieferte [50CD3C10]
Track 3 kann nicht als akkurat verifiziert werden (Zuversicht 4) [B62E7A89], AccurateRip lieferte [F611C95D]

Kein Track konnte als akkurat verifiziert werden
Es könnte sich um eine andere Pressung als von der in der Datenbank vorhandenen handeln

Ende des Statusreports

01. Kleiner Satellit (Piep, Piep) [Satellit in der Luft Mix] 04:01
02. Kleiner Satellit (Piep, Piep) [Langer Piiiep Mix] 05:17
03. Kleiner Satellit (Piep, Piep) [Liebessatelliten Remix] 06:18
Exact Audio Copy V0.99 prebeta 4 from 23. January 2008

EAC Auslese-Logdatei vom 15. Januar 2009, 0:55

Blümchen / Kleiner Satellit (Piep, Piep)

Benutztes Laufwerk : HL-DT-STDVD-ROM GDR-H30N Adapter: 0 ID: 1

Lesemodus : Sicher
Benutze Accurate Stream : Ja
Audio Puffer abgeschaltet : Ja
Benutze C2 Fehlerinformationen : Nein

Leseoffset Korrektur : 6
Überlesen in das Lead-In und Lead-Out : Nein
Fülle fehlende Offsetsample mit Stille auf : Ja
Lösche führende und nachfolgende stille Blöcke : Nein
Null Samples gehen in CRC Berechnungen ein : Ja
Benutzte Schnittstelle : Installierte externe ASPI Schnittstelle

Benutztes Ausgabeformat : Interne WAV Routinen
Sampleformat : 44.100 Hz; 16 Bit; Stereo

TOC der ausgelesenen CD

Track | Start | Länge | Startsektor | Endsektor
-------------------------------------------------------
1 | 0:00.00 | 4:01.25 | 0 | 18099
2 | 4:01.25 | 5:17.35 | 18100 | 41909
3 | 9:18.60 | 6:18.67 | 41910 | 70326

Bereichsstatus und Fehler

Gewählter Bereich

Dateiname C:\Dokumente und Einstellungen\Boris\Eigene Dateien\Bluemchen - Diskografie\Maxi-Singles\1996 - Kleiner Satellit\Blümchen - Kleiner Satellit (Piep, Piep).wav

Spitzenpegel 100.0 %
Bereichsqualität 100.0 %
Kopie CRC F8AE4572
Kopie OK

Keine Fehler aufgetreten

AccurateRip Übersicht

Track 1 kann nicht als akkurat verifiziert werden (Zuversicht 2) [FC0E2714], AccurateRip lieferte [98DA86A0]
Track 2 kann nicht als akkurat verifiziert werden (Zuversicht 2) [3FC3174A], AccurateRip lieferte [983EB9FB]
Track 3 kann nicht als akkurat verifiziert werden (Zuversicht 2) [BC937802], AccurateRip lieferte [23EFF3C3]

Kein Track konnte als akkurat verifiziert werden
Es könnte sich um eine andere Pressung als von der in der Datenbank vorhandenen handeln

Ende des Statusreports

01. Boomerang (Boomerang in der Luft Mix) 03:52
02. Boomerang (Langer Boooomerang Mix) 05:25
03. Boomerang (Boomerang Album Mix) 05:03
Exact Audio Copy V0.99 prebeta 4 from 23. January 2008

EAC Auslese-Logdatei vom 15. Januar 2009, 1:28

Blümchen / Boomerang

Benutztes Laufwerk : HL-DT-STDVD-ROM GDR-H30N Adapter: 0 ID: 1

Lesemodus : Sicher
Benutze Accurate Stream : Ja
Audio Puffer abgeschaltet : Ja
Benutze C2 Fehlerinformationen : Nein

Leseoffset Korrektur : 6
Überlesen in das Lead-In und Lead-Out : Nein
Fülle fehlende Offsetsample mit Stille auf : Ja
Lösche führende und nachfolgende stille Blöcke : Nein
Null Samples gehen in CRC Berechnungen ein : Ja
Benutzte Schnittstelle : Installierte externe ASPI Schnittstelle

Benutztes Ausgabeformat : Interne WAV Routinen
Sampleformat : 44.100 Hz; 16 Bit; Stereo

TOC der ausgelesenen CD

Track | Start | Länge | Startsektor | Endsektor
-------------------------------------------------------
1 | 0:00.00 | 3:52.37 | 0 | 17436
2 | 3:52.37 | 5:25.40 | 17437 | 41851
3 | 9:18.02 | 5:03.55 | 41852 | 64631

Bereichsstatus und Fehler

Gewählter Bereich

Dateiname C:\Dokumente und Einstellungen\Boris\Eigene Dateien\Bluemchen - Diskografie\Maxi-Singles\1996 - Boomerang\Blümchen - Boomerang.wav

Spitzenpegel 99.9 %
Bereichsqualität 100.0 %
Kopie CRC 78C964D9
Kopie OK

Keine Fehler aufgetreten

AccurateRip Übersicht

Track 1 akkurat gelesen (Zuversicht 2) [8BF92F90]
Track 2 akkurat gelesen (Zuversicht 2) [DD08F397]
Track 3 akkurat gelesen (Zuversicht 2) [7C8C2DD7]

Alle Tracks wurden akkurat gelesen

Ende des Statusreports

01. Du und Ich - Du in der Luft Mix 03:34
02. Du und Ich - Langer Iiich Mix 05:39
03. Du & Ich im Haus Mix 04:54
04. Du & Ich Album Mix 05:10
Exact Audio Copy V0.99 prebeta 4 from 23. January 2008

EAC Auslese-Logdatei vom 15. Januar 2009, 2:09

Blümchen / Du und Ich

Benutztes Laufwerk : HL-DT-STDVD-ROM GDR-H30N Adapter: 0 ID: 1

Lesemodus : Sicher
Benutze Accurate Stream : Ja
Audio Puffer abgeschaltet : Ja
Benutze C2 Fehlerinformationen : Nein

Leseoffset Korrektur : 6
Überlesen in das Lead-In und Lead-Out : Nein
Fülle fehlende Offsetsample mit Stille auf : Ja
Lösche führende und nachfolgende stille Blöcke : Nein
Null Samples gehen in CRC Berechnungen ein : Ja
Benutzte Schnittstelle : Installierte externe ASPI Schnittstelle

Benutztes Ausgabeformat : Interne WAV Routinen
Sampleformat : 44.100 Hz; 16 Bit; Stereo

TOC der ausgelesenen CD

Track | Start | Länge | Startsektor | Endsektor
-------------------------------------------------------
1 | 0:00.00 | 3:34.17 | 0 | 16066
2 | 3:34.17 | 5:39.23 | 16067 | 41514
3 | 9:13.40 | 4:54.47 | 41515 | 63611
4 | 14:08.12 | 5:10.50 | 63612 | 86911

Bereichsstatus und Fehler

Gewählter Bereich

Dateiname C:\Dokumente und Einstellungen\Boris\Eigene Dateien\Bluemchen - Diskografie\Maxi-Singles\1996 - Du und Ich\Blümchen - Du und Ich.wav

Spitzenpegel 100.0 %
Bereichsqualität 100.0 %
Kopie CRC 3C78DCD7
Kopie OK

Keine Fehler aufgetreten

AccurateRip Übersicht

Track 1 nicht in Datenbank enthalten
Track 2 nicht in Datenbank enthalten
Track 3 nicht in Datenbank enthalten
Track 4 nicht in Datenbank enthalten

Keiner der Tracks ist in der AccurateRip Datenbank vorhanden

Ende des Statusreports

01. Bicycle race (On the air Mix) 03:52
02. Bicycle race (Long race Mix) 05:23
03. Where hearts have wings (Album Mix) 06:25
Exact Audio Copy V0.99 prebeta 4 from 23. January 2008

EAC Auslese-Logdatei vom 15. Januar 2009, 0:48

Queen dance traxx featuring Blümchen / Bicycle Race

Benutztes Laufwerk : HL-DT-STDVD-ROM GDR-H30N Adapter: 0 ID: 1

Lesemodus : Sicher
Benutze Accurate Stream : Ja
Audio Puffer abgeschaltet : Ja
Benutze C2 Fehlerinformationen : Nein

Leseoffset Korrektur : 6
Überlesen in das Lead-In und Lead-Out : Nein
Fülle fehlende Offsetsample mit Stille auf : Ja
Lösche führende und nachfolgende stille Blöcke : Nein
Null Samples gehen in CRC Berechnungen ein : Ja
Benutzte Schnittstelle : Installierte externe ASPI Schnittstelle

Benutztes Ausgabeformat : Interne WAV Routinen
Sampleformat : 44.100 Hz; 16 Bit; Stereo

TOC der ausgelesenen CD

Track | Start | Länge | Startsektor | Endsektor
-------------------------------------------------------
1 | 0:00.00 | 3:52.12 | 0 | 17411
2 | 3:52.12 | 5:23.25 | 17412 | 41661
3 | 9:15.37 | 6:25.48 | 41662 | 70584

Bereichsstatus und Fehler

Gewählter Bereich

Dateiname C:\Dokumente und Einstellungen\Boris\Eigene Dateien\Bluemchen - Diskografie\Maxi-Singles\1996 - Bicycle Race\Queen dance traxx featuring Blümchen - Bicycle Race.wav

Spitzenpegel 100.0 %
Bereichsqualität 100.0 %
Kopie CRC BBF79757
Kopie OK

Keine Fehler aufgetreten

AccurateRip Übersicht

Track 1 akkurat gelesen (Zuversicht 2) [176C5361]
Track 2 akkurat gelesen (Zuversicht 2) [6DCB99B7]
Track 3 akkurat gelesen (Zuversicht 2) [A49AABA3]

Alle Tracks wurden akkurat gelesen

Ende des Statusreports

01. Nur geträumt ... (Traum in der Luft Mix) 03:46
02. Nur geträumt ... (Langer Traum Mix) 06:15
03. Nur geträumt ... (Holger Hiller Drum'n' Bass Mix) 05:41
Exact Audio Copy V0.99 prebeta 4 from 23. January 2008

EAC Auslese-Logdatei vom 15. Januar 2009, 2:19

Blümchen / Nur geträumt ...

Benutztes Laufwerk : HL-DT-STDVD-ROM GDR-H30N Adapter: 0 ID: 1

Lesemodus : Sicher
Benutze Accurate Stream : Ja
Audio Puffer abgeschaltet : Ja
Benutze C2 Fehlerinformationen : Nein

Leseoffset Korrektur : 6
Überlesen in das Lead-In und Lead-Out : Nein
Fülle fehlende Offsetsample mit Stille auf : Ja
Lösche führende und nachfolgende stille Blöcke : Nein
Null Samples gehen in CRC Berechnungen ein : Ja
Benutzte Schnittstelle : Installierte externe ASPI Schnittstelle

Benutztes Ausgabeformat : Interne WAV Routinen
Sampleformat : 44.100 Hz; 16 Bit; Stereo

TOC der ausgelesenen CD

Track | Start | Länge | Startsektor | Endsektor
-------------------------------------------------------
1 | 0:00.00 | 3:46.17 | 0 | 16966
2 | 3:46.17 | 6:15.00 | 16967 | 45091
3 | 10:01.17 | 5:41.18 | 45092 | 70684

Bereichsstatus und Fehler

Gewählter Bereich

Dateiname C:\Dokumente und Einstellungen\Boris\Eigene Dateien\Bluemchen - Diskografie\Maxi-Singles\1997 - Nur getraeumt\Blümchen - Nur geträumt ....wav

Spitzenpegel 100.0 %
Bereichsqualität 100.0 %
Kopie CRC 292E2E43
Kopie OK

Keine Fehler aufgetreten

AccurateRip Übersicht

Track 1 nicht in Datenbank enthalten
Track 2 nicht in Datenbank enthalten
Track 3 nicht in Datenbank enthalten

Keiner der Tracks ist in der AccurateRip Datenbank vorhanden

Ende des Statusreports

01. Verrückte Jungs (Jungs in der Luft Mix) 03:51
02. Verrückte Jungs (Große Jungs Mix) 06:19
03. Verrückte Jungs (Ultra-Sonic Remix) 04:41
04. Verrückte Jungs (Album Mix) 05:10
Exact Audio Copy V0.99 prebeta 4 from 23. January 2008

EAC Auslese-Logdatei vom 15. Januar 2009, 2:27

Blümchen / Verrückte Jungs

Benutztes Laufwerk : HL-DT-STDVD-ROM GDR-H30N Adapter: 0 ID: 1

Lesemodus : Sicher
Benutze Accurate Stream : Ja
Audio Puffer abgeschaltet : Ja
Benutze C2 Fehlerinformationen : Nein

Leseoffset Korrektur : 6
Überlesen in das Lead-In und Lead-Out : Nein
Fülle fehlende Offsetsample mit Stille auf : Ja
Lösche führende und nachfolgende stille Blöcke : Nein
Null Samples gehen in CRC Berechnungen ein : Ja
Benutzte Schnittstelle : Installierte externe ASPI Schnittstelle

Benutztes Ausgabeformat : Interne WAV Routinen
Sampleformat : 44.100 Hz; 16 Bit; Stereo

TOC der ausgelesenen CD

Track | Start | Länge | Startsektor | Endsektor
-------------------------------------------------------
1 | 0:00.00 | 3:51.47 | 0 | 17371
2 | 3:51.47 | 6:19.17 | 17372 | 45813
3 | 10:10.64 | 4:41.66 | 45814 | 66954
4 | 14:52.55 | 5:10.27 | 66955 | 90231

Bereichsstatus und Fehler

Gewählter Bereich

Dateiname C:\Dokumente und Einstellungen\Boris\Eigene Dateien\Bluemchen - Diskografie\Maxi-Singles\1997 - Verrueckte Jungs\Blümchen - Verrückte Jungs.wav

Spitzenpegel 100.0 %
Bereichsqualität 99.9 %
Kopie CRC 4E445DE3
Kopie OK

Keine Fehler aufgetreten

AccurateRip Übersicht

Track 1 kann nicht als akkurat verifiziert werden (Zuversicht 2) [3C3DAED1], AccurateRip lieferte [CA6D4E61]
Track 2 kann nicht als akkurat verifiziert werden (Zuversicht 2) [F2C1F06C], AccurateRip lieferte [516F2974]
Track 3 kann nicht als akkurat verifiziert werden (Zuversicht 2) [4E103381], AccurateRip lieferte [D2D415D7]
Track 4 kann nicht als akkurat verifiziert werden (Zuversicht 2) [8FAA368B], AccurateRip lieferte [1C9D4011]

Kein Track konnte als akkurat verifiziert werden
Es könnte sich um eine andere Pressung als von der in der Datenbank vorhandenen handeln

Ende des Statusreports

01. Zeitloser Radio Mix 03:47
02. Alle Zeit der Welt Mix 05:35
03. Stefan Zauner/Muenchner Freiheit Radio Mix 03:51
04. Trommel&Bass in der Luft Mix 03:48
05. Alle Trommeln&Baesse der Welt Mix 06:20
Exact Audio Copy V0.99 prebeta 4 from 23. January 2008

EAC Auslese-Logdatei vom 15. Januar 2009, 0:39

Bluemchen / Gib mir noch Zeit (single)

Benutztes Laufwerk : HL-DT-STDVD-ROM GDR-H30N Adapter: 0 ID: 1

Lesemodus : Sicher
Benutze Accurate Stream : Ja
Audio Puffer abgeschaltet : Ja
Benutze C2 Fehlerinformationen : Nein

Leseoffset Korrektur : 6
Überlesen in das Lead-In und Lead-Out : Nein
Fülle fehlende Offsetsample mit Stille auf : Ja
Lösche führende und nachfolgende stille Blöcke : Nein
Null Samples gehen in CRC Berechnungen ein : Ja
Benutzte Schnittstelle : Installierte externe ASPI Schnittstelle

Benutztes Ausgabeformat : Interne WAV Routinen
Sampleformat : 44.100 Hz; 16 Bit; Stereo

TOC der ausgelesenen CD

Track | Start | Länge | Startsektor | Endsektor
-------------------------------------------------------
1 | 0:00.00 | 3:47.72 | 0 | 17096
2 | 3:47.72 | 5:35.18 | 17097 | 42239
3 | 9:23.15 | 3:51.12 | 42240 | 59576
4 | 13:14.27 | 3:48.68 | 59577 | 76744
5 | 17:03.20 | 6:20.70 | 76745 | 105314

Bereichsstatus und Fehler

Gewählter Bereich

Dateiname C:\Dokumente und Einstellungen\Boris\Eigene Dateien\Bluemchen - Diskografie\Maxi-Singles\1997 - Gib mir noch Zeit\Bluemchen - Gib mir noch Zeit (single).wav

Spitzenpegel 100.0 %
Bereichsqualität 100.0 %
Kopie CRC C602E9B3
Kopie OK

Keine Fehler aufgetreten

AccurateRip Übersicht

Track 1 nicht in Datenbank enthalten
Track 2 nicht in Datenbank enthalten
Track 3 nicht in Datenbank enthalten
Track 4 nicht in Datenbank enthalten
Track 5 nicht in Datenbank enthalten

Keiner der Tracks ist in der AccurateRip Datenbank vorhanden

Ende des Statusreports

01. Sesam Jam (Der, Die, Das) Radioversion 03:35
02. Sesam Jam (Der, Die, Das) Extended Version 05:05
03. Engel der Nacht (Album Version) 05:19
Exact Audio Copy V0.99 prebeta 4 from 23. January 2008

EAC Auslese-Logdatei vom 15. Januar 2009, 1:05

Blümchen / Sesam Jam (Der, Die, Das)

Benutztes Laufwerk : HL-DT-STDVD-ROM GDR-H30N Adapter: 0 ID: 1

Lesemodus : Sicher
Benutze Accurate Stream : Ja
Audio Puffer abgeschaltet : Ja
Benutze C2 Fehlerinformationen : Nein

Leseoffset Korrektur : 6
Überlesen in das Lead-In und Lead-Out : Nein
Fülle fehlende Offsetsample mit Stille auf : Ja
Lösche führende und nachfolgende stille Blöcke : Nein
Null Samples gehen in CRC Berechnungen ein : Ja
Benutzte Schnittstelle : Installierte externe ASPI Schnittstelle

Benutztes Ausgabeformat : Interne WAV Routinen
Sampleformat : 44.100 Hz; 16 Bit; Stereo

TOC der ausgelesenen CD

Track | Start | Länge | Startsektor | Endsektor
-------------------------------------------------------
1 | 0:00.00 | 3:35.30 | 0 | 16154
2 | 3:35.30 | 5:05.05 | 16155 | 39034
3 | 8:40.35 | 5:19.17 | 39035 | 62976

Bereichsstatus und Fehler

Gewählter Bereich

Dateiname C:\Dokumente und Einstellungen\Boris\Eigene Dateien\Bluemchen - Diskografie\Maxi-Singles\1997 - Sesam-Jam\Blümchen - Sesam Jam (Der, Die, Das).wav

Spitzenpegel 99.8 %
Bereichsqualität 100.0 %
Kopie CRC 5F3593B0
Kopie OK

Keine Fehler aufgetreten

AccurateRip Übersicht

Track 1 nicht in Datenbank enthalten
Track 2 nicht in Datenbank enthalten
Track 3 nicht in Datenbank enthalten

Keiner der Tracks ist in der AccurateRip Datenbank vorhanden

Ende des Statusreports

01. Blaue Augen (Blaue Augen in der Luft Mix) 03:46
02. Blaue Augen (Augen auf Mix) 05:18
03. Blaue Augen (Geburtstags Hardcore Mix) 05:10
04. Blaue Augen (Rote Rosen Mix) 04:02
Exact Audio Copy V0.99 prebeta 4 from 23. January 2008

EAC Auslese-Logdatei vom 15. Januar 2009, 1:14

Blümchen / Blaue Augen

Benutztes Laufwerk : HL-DT-STDVD-ROM GDR-H30N Adapter: 0 ID: 1

Lesemodus : Sicher
Benutze Accurate Stream : Ja
Audio Puffer abgeschaltet : Ja
Benutze C2 Fehlerinformationen : Nein

Leseoffset Korrektur : 6
Überlesen in das Lead-In und Lead-Out : Nein
Fülle fehlende Offsetsample mit Stille auf : Ja
Lösche führende und nachfolgende stille Blöcke : Nein
Null Samples gehen in CRC Berechnungen ein : Ja
Benutzte Schnittstelle : Installierte externe ASPI Schnittstelle

Benutztes Ausgabeformat : Interne WAV Routinen
Sampleformat : 44.100 Hz; 16 Bit; Stereo

TOC der ausgelesenen CD

Track | Start | Länge | Startsektor | Endsektor
-------------------------------------------------------
1 | 0:00.00 | 3:46.60 | 0 | 17009
2 | 3:46.60 | 5:18.07 | 17010 | 40866
3 | 9:04.67 | 5:10.13 | 40867 | 64129
4 | 14:15.05 | 4:02.00 | 64130 | 82279

Bereichsstatus und Fehler

Gewählter Bereich

Dateiname C:\Dokumente und Einstellungen\Boris\Eigene Dateien\Bluemchen - Diskografie\Maxi-Singles\1998 - Blaue Augen\Blümchen - Blaue Augen.wav

Spitzenpegel 100.0 %
Bereichsqualität 100.0 %
Kopie CRC 91C795EC
Kopie OK

Keine Fehler aufgetreten

AccurateRip Übersicht

Track 1 nicht in Datenbank enthalten
Track 2 nicht in Datenbank enthalten
Track 3 nicht in Datenbank enthalten
Track 4 nicht in Datenbank enthalten

Keiner der Tracks ist in der AccurateRip Datenbank vorhanden

Ende des Statusreports

01. Ich bin wieder hier (Käpt'n Nemos Radio Mix) 03:52
02. Ich bin wieder hier (Grosser Blauwal Mix) 05:31
03. Ich bin wieder hier (Elektroden Mix) 04:17
04. Ich bin wieder hier (Triple S. Remix) 04:43
05. Ich bin wieder hier (Kan Cold Remix) 06:02
Exact Audio Copy V0.99 prebeta 4 from 23. January 2008

EAC Auslese-Logdatei vom 15. Januar 2009, 1:58

Blümchen / Ich bin wieder hier

Benutztes Laufwerk : HL-DT-STDVD-ROM GDR-H30N Adapter: 0 ID: 1

Lesemodus : Sicher
Benutze Accurate Stream : Ja
Audio Puffer abgeschaltet : Ja
Benutze C2 Fehlerinformationen : Nein

Leseoffset Korrektur : 6
Überlesen in das Lead-In und Lead-Out : Nein
Fülle fehlende Offsetsample mit Stille auf : Ja
Lösche führende und nachfolgende stille Blöcke : Nein
Null Samples gehen in CRC Berechnungen ein : Ja
Benutzte Schnittstelle : Installierte externe ASPI Schnittstelle

Benutztes Ausgabeformat : Interne WAV Routinen
Sampleformat : 44.100 Hz; 16 Bit; Stereo

TOC der ausgelesenen CD

Track | Start | Länge | Startsektor | Endsektor
-------------------------------------------------------
1 | 0:00.00 | 3:52.52 | 0 | 17451
2 | 3:52.52 | 5:31.05 | 17452 | 42281
3 | 9:23.57 | 4:17.45 | 42282 | 61601
4 | 13:41.27 | 4:43.45 | 61602 | 82871
5 | 18:24.72 | 6:02.23 | 82872 | 110044

Bereichsstatus und Fehler

Gewählter Bereich

Dateiname C:\Dokumente und Einstellungen\Boris\Eigene Dateien\Bluemchen - Diskografie\Maxi-Singles\1998 - Ich bin wieder hier\Blümchen - Ich bin wieder hier.wav

Spitzenpegel 100.0 %
Bereichsqualität 100.0 %
Kopie CRC 53BAB88D
Kopie OK

Keine Fehler aufgetreten

AccurateRip Übersicht

Track 1 akkurat gelesen (Zuversicht 2) [8ACE0A31]
Track 2 akkurat gelesen (Zuversicht 2) [B3057C4B]
Track 3 akkurat gelesen (Zuversicht 2) [27ED56EE]
Track 4 akkurat gelesen (Zuversicht 2) [C46DEB35]
Track 5 akkurat gelesen (Zuversicht 2) [42410E0F]

Alle Tracks wurden akkurat gelesen

Ende des Statusreports

01. Es ist vorbei (Radio Mix) 03:34
02. Es ist vorbei (Extended Mix) 04:58
03. Es ist vorbei (Patty's softer 808 Mix) 03:58
04. Es ist vorbei (Fetter Linn-Drum Mix) 03:59
05. Es ist vorbei (Album Mix) 04:34
Exact Audio Copy V0.99 prebeta 4 from 23. January 2008

EAC Auslese-Logdatei vom 15. Januar 2009, 0:28

Blümchen / Es ist vorbei

Benutztes Laufwerk : HL-DT-STDVD-ROM GDR-H30N Adapter: 0 ID: 1

Lesemodus : Sicher
Benutze Accurate Stream : Ja
Audio Puffer abgeschaltet : Ja
Benutze C2 Fehlerinformationen : Nein

Leseoffset Korrektur : 6
Überlesen in das Lead-In und Lead-Out : Nein
Fülle fehlende Offsetsample mit Stille auf : Ja
Lösche führende und nachfolgende stille Blöcke : Nein
Null Samples gehen in CRC Berechnungen ein : Ja
Benutzte Schnittstelle : Installierte externe ASPI Schnittstelle

Benutztes Ausgabeformat : Interne WAV Routinen
Sampleformat : 44.100 Hz; 16 Bit; Stereo

TOC der ausgelesenen CD

Track | Start | Länge | Startsektor | Endsektor
-------------------------------------------------------
1 | 0:00.00 | 3:34.65 | 0 | 16114
2 | 3:34.65 | 4:58.12 | 16115 | 38476
3 | 8:33.02 | 3:58.65 | 38477 | 56391
4 | 12:31.67 | 3:59.73 | 56392 | 74389
5 | 16:31.65 | 4:34.52 | 74390 | 94991

Bereichsstatus und Fehler

Gewählter Bereich

Dateiname C:\Dokumente und Einstellungen\Boris\Eigene Dateien\Bluemchen - Diskografie\Maxi-Singles\1998 - Es ist vorbei\Blümchen - Es ist vorbei.wav

Spitzenpegel 100.0 %
Bereichsqualität 100.0 %
Kopie CRC D23FF554
Kopie OK

Keine Fehler aufgetreten

AccurateRip Übersicht

Track 1 nicht in Datenbank enthalten
Track 2 nicht in Datenbank enthalten
Track 3 nicht in Datenbank enthalten
Track 4 nicht in Datenbank enthalten
Track 5 nicht in Datenbank enthalten

Keiner der Tracks ist in der AccurateRip Datenbank vorhanden

Ende des Statusreports

01. Tu es mon ile (Radio Edit) 03:35
02. Tu es mon ile (Extended Version) 06:04
Exact Audio Copy V0.99 prebeta 5 from 4. May 2009

EAC Auslese-Logdatei vom 23. September 2011, 19:52

Blumchen / Tu Es Mon Ile

Benutztes Laufwerk : HL-DT-STDVD-ROM GDR-H30N Adapter: 0 ID: 1

Lesemodus : Sicher
Benutze Accurate Stream : Ja
Audio Puffer abgeschaltet : Ja
Benutze C2 Fehlerinformationen : Nein

Leseoffset Korrektur : 6
Überlesen in das Lead-In und Lead-Out : Nein
Fülle fehlende Offsetsample mit Stille auf : Ja
Lösche führende und nachfolgende stille Blöcke : Nein
Null Samples gehen in CRC Berechnungen ein : Ja
Benutzte Schnittstelle : Installierte externe ASPI Schnittstelle

Benutztes Ausgabeformat : Interne WAV Routinen
Sampleformat : 44.100 Hz; 16 Bit; Stereo

TOC der ausgelesenen CD

Track | Start | Länge | Startsektor | Endsektor
-------------------------------------------------------
1 | 0:00.32 | 3:34.38 | 32 | 16119
2 | 3:34.70 | 6:02.72 | 16120 | 43341

Bereichsstatus und Fehler

Gewählter Bereich

Dateiname K:\Audio\Euro-Dance,Techno\Blümchen\Maxi-Singles\1998 - Tu Es Mon Ile\Blumchen - Tu Es Mon Ile.wav

Spitzenpegel 100.0 %
Bereichsqualität 100.0 %
Kopie CRC 5AFAC1D0
Kopie OK

Keine Fehler aufgetreten

AccurateRip Übersicht

Track 1 kann nicht als akkurat verifiziert werden (Zuversicht 1) [840EB2F1], AccurateRip lieferte [EDABF7F1]
Track 2 kann nicht als akkurat verifiziert werden (Zuversicht 1) [980BFAD6], AccurateRip lieferte [DF584F75]

Kein Track konnte als akkurat verifiziert werden
Es könnte sich um eine andere Pressung als von der in der Datenbank vorhandenen handeln

Ende des Statusreports

01. Heut' Ist Mein Tag (Radio Mix) 03:36
02. Heut' Ist Mein Tag (Extended Mix) 05:24
03. Heut' Ist Mein Tag (180er LFO Hardcore Mix) 04:42
04. Heut' Ist Mein Tag (Blümchen vs. Roh Mix) 03:06
Exact Audio Copy V0.99 prebeta 4 from 23. January 2008

EAC Auslese-Logdatei vom 15. Januar 2009, 2:41

Blümchen / Heut' ist mein Tag

Benutztes Laufwerk : HL-DT-STDVD-ROM GDR-H30N Adapter: 0 ID: 1

Lesemodus : Sicher
Benutze Accurate Stream : Ja
Audio Puffer abgeschaltet : Ja
Benutze C2 Fehlerinformationen : Nein

Leseoffset Korrektur : 6
Überlesen in das Lead-In und Lead-Out : Nein
Fülle fehlende Offsetsample mit Stille auf : Ja
Lösche führende und nachfolgende stille Blöcke : Nein
Null Samples gehen in CRC Berechnungen ein : Ja
Benutzte Schnittstelle : Installierte externe ASPI Schnittstelle

Benutztes Ausgabeformat : Interne WAV Routinen
Sampleformat : 44.100 Hz; 16 Bit; Stereo

TOC der ausgelesenen CD

Track | Start | Länge | Startsektor | Endsektor
-------------------------------------------------------
1 | 0:00.00 | 3:36.00 | 0 | 16199
2 | 3:36.00 | 5:24.12 | 16200 | 40511
3 | 9:00.12 | 4:42.15 | 40512 | 61676
4 | 13:42.27 | 3:06.73 | 61677 | 75699

Bereichsstatus und Fehler

Gewählter Bereich

Dateiname C:\Dokumente und Einstellungen\Boris\Eigene Dateien\Bluemchen - Diskografie\Maxi-Singles\1999 - Heut' ist mein Tag\Blümchen - Heut' ist mein Tag.wav

Spitzenpegel 100.0 %
Bereichsqualität 100.0 %
Kopie CRC 7195569A
Kopie OK

Keine Fehler aufgetreten

AccurateRip Übersicht

Track 1 nicht in Datenbank enthalten
Track 2 nicht in Datenbank enthalten
Track 3 nicht in Datenbank enthalten
Track 4 nicht in Datenbank enthalten

Keiner der Tracks ist in der AccurateRip Datenbank vorhanden

Ende des Statusreports

01. Unter'm Weihnachtsbaum (Kurzer Weihnachtsbaum Mix) 03:44
02. Unter'm Weihnachtsbaum (Heiligabend Mix) 03:13
03. Unter'm Weihnachtsbaum (Langer Weihnachtsbaum Mix) 05:25
04. Medley - Live in Berlin 05:42
Exact Audio Copy V0.99 prebeta 4 from 23. January 2008

EAC Auslese-Logdatei vom 15. Januar 2009, 1:22

Blümchen / Unter'm Weihnachtsbaum

Benutztes Laufwerk : HL-DT-STDVD-ROM GDR-H30N Adapter: 0 ID: 1

Lesemodus : Sicher
Benutze Accurate Stream : Ja
Audio Puffer abgeschaltet : Ja
Benutze C2 Fehlerinformationen : Nein

Leseoffset Korrektur : 6
Überlesen in das Lead-In und Lead-Out : Nein
Fülle fehlende Offsetsample mit Stille auf : Ja
Lösche führende und nachfolgende stille Blöcke : Nein
Null Samples gehen in CRC Berechnungen ein : Ja
Benutzte Schnittstelle : Installierte externe ASPI Schnittstelle

Benutztes Ausgabeformat : Interne WAV Routinen
Sampleformat : 44.100 Hz; 16 Bit; Stereo

TOC der ausgelesenen CD

Track | Start | Länge | Startsektor | Endsektor
-------------------------------------------------------
1 | 0:00.00 | 3:44.50 | 0 | 16849
2 | 3:44.50 | 3:13.65 | 16850 | 31389
3 | 6:58.40 | 5:25.47 | 31390 | 55811
4 | 12:24.12 | 5:42.18 | 55812 | 81479

Bereichsstatus und Fehler

Gewählter Bereich

Dateiname C:\Dokumente und Einstellungen\Boris\Eigene Dateien\Bluemchen - Diskografie\Maxi-Singles\1999 - Unter'm Weihnachtsbaum\Blümchen - Unter'm Weihnachtsbaum.wav

Spitzenpegel 99.8 %
Bereichsqualität 100.0 %
Kopie CRC BE9675D1
Kopie OK

Keine Fehler aufgetreten

AccurateRip Übersicht

Track 1 kann nicht als akkurat verifiziert werden (Zuversicht 1) [9DB3CDCF], AccurateRip lieferte [03CA95AA]
Track 2 kann nicht als akkurat verifiziert werden (Zuversicht 1) [01F75DE2], AccurateRip lieferte [B93A4DE3]
Track 3 kann nicht als akkurat verifiziert werden (Zuversicht 1) [1D1A0EA9], AccurateRip lieferte [AF85C94D]
Track 4 kann nicht als akkurat verifiziert werden (Zuversicht 1) [C37CF718], AccurateRip lieferte [2C8608B6]

Kein Track konnte als akkurat verifiziert werden
Es könnte sich um eine andere Pressung als von der in der Datenbank vorhandenen handeln

Ende des Statusreports

01. Ist Deine Liebe echt? [Disco 2000 Radio Mix] 03:20
02. Ist Deine Liebe echt? [Kurzer Mix] 03:21
03. Ist Deine Liebe echt? [Disco 2000 Extended Mix] 05:01
04. Ist Deine Liebe echt? [Club Remix] 04:51
Exact Audio Copy V0.99 prebeta 4 from 23. January 2008

EAC Auslese-Logdatei vom 15. Januar 2009, 2:48

Blümchen / Ist Deine Liebe echt? - CD 1

Benutztes Laufwerk : HL-DT-STDVD-ROM GDR-H30N Adapter: 0 ID: 1

Lesemodus : Sicher
Benutze Accurate Stream : Ja
Audio Puffer abgeschaltet : Ja
Benutze C2 Fehlerinformationen : Nein

Leseoffset Korrektur : 6
Überlesen in das Lead-In und Lead-Out : Nein
Fülle fehlende Offsetsample mit Stille auf : Ja
Lösche führende und nachfolgende stille Blöcke : Nein
Null Samples gehen in CRC Berechnungen ein : Ja
Benutzte Schnittstelle : Installierte externe ASPI Schnittstelle

Benutztes Ausgabeformat : Interne WAV Routinen
Sampleformat : 44.100 Hz; 16 Bit; Stereo

TOC der ausgelesenen CD

Track | Start | Länge | Startsektor | Endsektor
-------------------------------------------------------
1 | 0:00.00 | 3:20.05 | 0 | 15004
2 | 3:20.05 | 3:21.57 | 15005 | 30136
3 | 6:41.62 | 5:01.68 | 30137 | 52779
4 | 11:43.55 | 4:51.60 | 52780 | 74664

Bereichsstatus und Fehler

Gewählter Bereich

Dateiname C:\Dokumente und Einstellungen\Boris\Eigene Dateien\Bluemchen - Diskografie\Maxi-Singles\2000 - Ist deine Liebe echt\Blümchen - Ist Deine Liebe echt - CD 1.wav

Spitzenpegel 100.0 %
Bereichsqualität 99.9 %
Kopie CRC 34BBC49F
Kopie OK

Keine Fehler aufgetreten

AccurateRip Übersicht

Track 1 nicht in Datenbank enthalten
Track 2 nicht in Datenbank enthalten
Track 3 nicht in Datenbank enthalten
Track 4 nicht in Datenbank enthalten

Keiner der Tracks ist in der AccurateRip Datenbank vorhanden

Ende des Statusreports

01. Ist Deine Liebe echt? [Kurzer Mix] 03:21
02. Ist Deine Liebe echt? [Disco 2000 Radio Mix] 03:19
03. Ist Deine Liebe echt? [Langer Mix] 04:24
04. Ist Deine Liebe echt? [Power Mix] 03:36
Exact Audio Copy V0.99 prebeta 4 from 23. January 2008

EAC Auslese-Logdatei vom 15. Januar 2009, 3:00

Blümchen / Ist Deine Liebe echt? - CD 2

Benutztes Laufwerk : HL-DT-STDVD-ROM GDR-H30N Adapter: 0 ID: 1

Lesemodus : Sicher
Benutze Accurate Stream : Ja
Audio Puffer abgeschaltet : Ja
Benutze C2 Fehlerinformationen : Nein

Leseoffset Korrektur : 6
Überlesen in das Lead-In und Lead-Out : Nein
Fülle fehlende Offsetsample mit Stille auf : Ja
Lösche führende und nachfolgende stille Blöcke : Nein
Null Samples gehen in CRC Berechnungen ein : Ja
Benutzte Schnittstelle : Installierte externe ASPI Schnittstelle

Benutztes Ausgabeformat : Interne WAV Routinen
Sampleformat : 44.100 Hz; 16 Bit; Stereo

TOC der ausgelesenen CD

Track | Start | Länge | Startsektor | Endsektor
-------------------------------------------------------
1 | 0:00.00 | 3:21.67 | 0 | 15141
2 | 3:21.67 | 3:19.35 | 15142 | 30101
3 | 6:41.27 | 4:24.33 | 30102 | 49934
4 | 11:05.60 | 3:36.32 | 49935 | 66166

Bereichsstatus und Fehler

Gewählter Bereich

Dateiname C:\Dokumente und Einstellungen\Boris\Eigene Dateien\Bluemchen - Diskografie\Maxi-Singles\2000 - Ist Deine Liebe echt - 2\Blümchen - Ist Deine Liebe echt - CD 2.wav

Spitzenpegel 100.0 %
Bereichsqualität 100.0 %
Kopie CRC 7D146A28
Kopie OK

Keine Fehler aufgetreten

AccurateRip Übersicht

Track 1 nicht in Datenbank enthalten
Track 2 nicht in Datenbank enthalten
Track 3 nicht in Datenbank enthalten
Track 4 nicht in Datenbank enthalten

Keiner der Tracks ist in der AccurateRip Datenbank vorhanden

Ende des Statusreports

01. Die Welt gehört mir [Kurzer Mix] 03:42
02. Die Welt gehört mir [Langer Mix] 05:13
03. Die Welt gehört mir [P''Roh''benraum Mix] 04:15
04. Die Welt gehört mir [Adams Radio Mix] 03:43
Exact Audio Copy V0.99 prebeta 4 from 23. January 2008

EAC Auslese-Logdatei vom 15. Januar 2009, 3:07

Blümchen / Die Welt gehört mir

Benutztes Laufwerk : HL-DT-STDVD-ROM GDR-H30N Adapter: 0 ID: 1

Lesemodus : Sicher
Benutze Accurate Stream : Ja
Audio Puffer abgeschaltet : Ja
Benutze C2 Fehlerinformationen : Nein

Leseoffset Korrektur : 6
Überlesen in das Lead-In und Lead-Out : Nein
Fülle fehlende Offsetsample mit Stille auf : Ja
Lösche führende und nachfolgende stille Blöcke : Nein
Null Samples gehen in CRC Berechnungen ein : Ja
Benutzte Schnittstelle : Installierte externe ASPI Schnittstelle

Benutztes Ausgabeformat : Interne WAV Routinen
Sampleformat : 44.100 Hz; 16 Bit; Stereo

TOC der ausgelesenen CD

Track | Start | Länge | Startsektor | Endsektor
-------------------------------------------------------
1 | 0:00.00 | 3:42.57 | 0 | 16706
2 | 3:42.57 | 5:13.38 | 16707 | 40219
3 | 8:56.20 | 4:15.52 | 40220 | 59396
4 | 13:11.72 | 3:43.55 | 59397 | 76176

Bereichsstatus und Fehler

Gewählter Bereich

Dateiname C:\Dokumente und Einstellungen\Boris\Eigene Dateien\Bluemchen - Diskografie\Maxi-Singles\2000 - Die Welt gehoert mir\Blümchen - Die Welt gehört mir.wav

Spitzenpegel 99.9 %
Bereichsqualität 100.0 %
Kopie CRC E705819C
Kopie OK

Keine Fehler aufgetreten

AccurateRip Übersicht

Track 1 nicht in Datenbank enthalten
Track 2 nicht in Datenbank enthalten
Track 3 nicht in Datenbank enthalten
Track 4 nicht in Datenbank enthalten

Keiner der Tracks ist in der AccurateRip Datenbank vorhanden

Ende des Statusreports

01. Es ist nie vorbei (Radio edit) 03:08
02. Es ist nie vorbei (Extended mix) 04:58
Exact Audio Copy V0.99 prebeta 4 from 23. January 2008

EAC Auslese-Logdatei vom 15. Januar 2009, 1:44

Blümchen v/s E-Type / Es ist nie vorbei

Benutztes Laufwerk : HL-DT-STDVD-ROM GDR-H30N Adapter: 0 ID: 1

Lesemodus : Sicher
Benutze Accurate Stream : Ja
Audio Puffer abgeschaltet : Ja
Benutze C2 Fehlerinformationen : Nein

Leseoffset Korrektur : 6
Überlesen in das Lead-In und Lead-Out : Nein
Fülle fehlende Offsetsample mit Stille auf : Ja
Lösche führende und nachfolgende stille Blöcke : Nein
Null Samples gehen in CRC Berechnungen ein : Ja
Benutzte Schnittstelle : Installierte externe ASPI Schnittstelle

Benutztes Ausgabeformat : Interne WAV Routinen
Sampleformat : 44.100 Hz; 16 Bit; Stereo

TOC der ausgelesenen CD

Track | Start | Länge | Startsektor | Endsektor
-------------------------------------------------------
1 | 0:00.00 | 3:08.45 | 0 | 14144
2 | 3:08.45 | 4:58.10 | 14145 | 36504

Bereichsstatus und Fehler

Gewählter Bereich

Dateiname C:\Dokumente und Einstellungen\Boris\Eigene Dateien\Bluemchen - Diskografie\Maxi-Singles\2000 - Es ist nie vorbei\Blümchen v s E-Type - Es ist nie vorbei.wav

Spitzenpegel 98.8 %
Bereichsqualität 100.0 %
Kopie CRC 4022E02C
Kopie OK

Keine Fehler aufgetreten

AccurateRip Übersicht

Track 1 nicht in Datenbank enthalten
Track 2 nicht in Datenbank enthalten

Keiner der Tracks ist in der AccurateRip Datenbank vorhanden

Ende des Statusreports

01. Ich vermisse Dich [Orchester Radio Mix] 03:30
02. Ich vermisse Dich [Radio Mix] 03:30
03. Ich vermisse Dich [Album Mix] 03:28
Exact Audio Copy V0.99 prebeta 4 from 23. January 2008

EAC Auslese-Logdatei vom 15. Januar 2009, 1:50

Blümchen / Ich vermisse Dich

Benutztes Laufwerk : HL-DT-STDVD-ROM GDR-H30N Adapter: 0 ID: 1

Lesemodus : Sicher
Benutze Accurate Stream : Ja
Audio Puffer abgeschaltet : Ja
Benutze C2 Fehlerinformationen : Nein

Leseoffset Korrektur : 6
Überlesen in das Lead-In und Lead-Out : Nein
Fülle fehlende Offsetsample mit Stille auf : Ja
Lösche führende und nachfolgende stille Blöcke : Nein
Null Samples gehen in CRC Berechnungen ein : Ja
Benutzte Schnittstelle : Installierte externe ASPI Schnittstelle

Benutztes Ausgabeformat : Interne WAV Routinen
Sampleformat : 44.100 Hz; 16 Bit; Stereo

TOC der ausgelesenen CD

Track | Start | Länge | Startsektor | Endsektor
-------------------------------------------------------
1 | 0:00.00 | 3:30.37 | 0 | 15786
2 | 3:30.37 | 3:30.28 | 15787 | 31564
3 | 7:00.65 | 3:28.62 | 31565 | 47226

Bereichsstatus und Fehler

Gewählter Bereich

Dateiname C:\Dokumente und Einstellungen\Boris\Eigene Dateien\Bluemchen - Diskografie\Maxi-Singles\2000 - Ich vermisse Dich\Blümchen - Ich vermisse Dich.wav

Spitzenpegel 100.0 %
Bereichsqualität 100.0 %
Kopie CRC 8D35757D
Kopie OK

Keine Fehler aufgetreten

AccurateRip Übersicht

Track 1 nicht in Datenbank enthalten
Track 2 nicht in Datenbank enthalten
Track 3 nicht in Datenbank enthalten

Keiner der Tracks ist in der AccurateRip Datenbank vorhanden

Ende des Statusreports

01. Intro (Herz an Herz) 04:55
02. Herz an Herz (Herz in der Luft Radio Mix) 03:46
03. Rosa Wolke 05:32
04. Komm auf meinen Stern 04:57
05. Kleiner Satellit (Langer Piiep Mix) 05:18
06. Liebe Liebe 05:03
07. Herzen haben Flügel 06:30
08. Du und ich 05:11
09. Odyssee in 3-D 04:52
10. Boomerang 05:05
11. Outro (Herz an Herz) 02:00
12. Kleiner Satellit (Kosmos Klassik Mix) 03:43
13. Herz an Herz (Herzattackenhaus Mix) 06:08
Exact Audio Copy V0.99 prebeta 4 from 23. January 2008

EAC Auslese-Logdatei vom 15. Januar 2009, 12:35

Blümchen / Herzfrequenz

Benutztes Laufwerk : HL-DT-STDVD-ROM GDR-H30N Adapter: 0 ID: 1

Lesemodus : Sicher
Benutze Accurate Stream : Ja
Audio Puffer abgeschaltet : Ja
Benutze C2 Fehlerinformationen : Nein

Leseoffset Korrektur : 6
Überlesen in das Lead-In und Lead-Out : Nein
Fülle fehlende Offsetsample mit Stille auf : Ja
Lösche führende und nachfolgende stille Blöcke : Nein
Null Samples gehen in CRC Berechnungen ein : Ja
Benutzte Schnittstelle : Installierte externe ASPI Schnittstelle

Benutztes Ausgabeformat : Interne WAV Routinen
Sampleformat : 44.100 Hz; 16 Bit; Stereo

TOC der ausgelesenen CD

Track | Start | Länge | Startsektor | Endsektor
-------------------------------------------------------
1 | 0:00.00 | 4:55.30 | 0 | 22154
2 | 4:55.30 | 3:46.67 | 22155 | 39171
3 | 8:42.22 | 5:32.35 | 39172 | 64106
4 | 14:14.57 | 4:57.47 | 64107 | 86428
5 | 19:12.29 | 5:18.15 | 86429 | 110293
6 | 24:30.44 | 5:03.66 | 110294 | 133084
7 | 29:34.35 | 6:30.47 | 133085 | 162381
8 | 36:05.07 | 5:11.53 | 162382 | 185759
9 | 41:16.60 | 4:52.24 | 185760 | 207683
10 | 46:09.09 | 5:05.68 | 207684 | 230626
11 | 51:15.02 | 2:00.39 | 230627 | 239665
12 | 53:15.41 | 3:43.14 | 239666 | 256404
13 | 56:58.55 | 6:08.16 | 256405 | 284020
14 | 65:38.71 | 8:11.28 | 295421 | 332273

Bereichsstatus und Fehler

Gewählter Bereich

Dateiname C:\Dokumente und Einstellungen\Boris\Eigene Dateien\Bluemchen - Diskografie\Albums\1996 - Herzfrequenz - 2\Blümchen - Herzfrequenz.wav

Spitzenpegel 100.0 %
Bereichsqualität 100.0 %
Kopie CRC 5B8D352F
Kopie OK

Keine Fehler aufgetreten

AccurateRip Übersicht

Track 1 akkurat gelesen (Zuversicht 7) [96ED327D]
Track 2 akkurat gelesen (Zuversicht 7) [8959B263]
Track 3 akkurat gelesen (Zuversicht 7) [F42ABA71]
Track 4 akkurat gelesen (Zuversicht 7) [BD4251F6]
Track 5 akkurat gelesen (Zuversicht 7) [08117C4C]
Track 6 akkurat gelesen (Zuversicht 7) [0CAA090C]
Track 7 akkurat gelesen (Zuversicht 7) [521A752D]
Track 8 akkurat gelesen (Zuversicht 7) [29A3A059]
Track 9 akkurat gelesen (Zuversicht 7) [CE2CEC60]
Track 10 akkurat gelesen (Zuversicht 7) [461BD16F]
Track 11 akkurat gelesen (Zuversicht 7) [2DCC6A70]
Track 12 akkurat gelesen (Zuversicht 7) [D42972CE]
Track 13 akkurat gelesen (Zuversicht 7) [1FB539CE]

Alle Tracks wurden akkurat gelesen

Ende des Statusreports

01. Intro (Herz An Herz) 04:54
02. Herz an Herz (Herz in der Luft Radio Mix) 03:47
03. Rosa Wolke 05:32
04. Komm auf meinen Stern 04:57
05. Kleiner Satellit (Langer Piiep Mix) 05:18
06. Liebe Liebe 05:03
07. Herzen haben Flügel 06:30
08. Du und Ich 05:11
09. Odyssee in 3-D 04:52
10. Boomerang 05:05
11. Outro (Herz an Herz) 02:00
12. Kleiner Satellit (Kosmos Klassik Mix) 03:43
13. Herz an Herz (Herzattackenhaus Mix) 06:07
14. Bicycle Race (On the air mix) 03:49
Exact Audio Copy V0.99 prebeta 3 from 28. July 2007

EAC Auslese-Logdatei vom 11. März 2008, 3:42

Blümchen / Herzfrequenz

Benutztes Laufwerk : SONY DVD RW DW-Q31A Adapter: 0 ID: 0

Lesemodus : Sicher
Benutze Accurate Stream : Ja
Audio Puffer abgeschaltet : Ja
Benutze C2 Fehlerinformationen : Nein

Leseoffset Korrektur : 6
Überlesen in das Lead-In und Lead-Out : Nein
Fülle fehlende Offsetsample mit Stille auf : Ja
Lösche führende und nachfolgende stille Blöcke : Nein
Null Samples gehen in CRC Berechnungen ein : Ja
Benutzte Schnittstelle : Installierte externe ASPI Schnittstelle

Benutztes Ausgabeformat : Interne WAV Routinen
Sampleformat : 44.100 Hz; 16 Bit; Stereo

TOC der ausgelesenen CD

Track | Start | Länge | Startsektor | Endsektor
-------------------------------------------------------
1 | 0:00.00 | 4:54.69 | 0 | 22118
2 | 4:54.69 | 3:47.03 | 22119 | 39146
3 | 8:41.72 | 5:32.28 | 39147 | 64074
4 | 14:14.25 | 4:57.45 | 64075 | 86394
5 | 19:11.70 | 5:18.15 | 86395 | 110259
6 | 24:30.10 | 5:03.55 | 110260 | 133039
7 | 29:33.65 | 6:30.44 | 133040 | 162333
8 | 36:04.34 | 5:11.66 | 162334 | 185724
9 | 41:16.25 | 4:52.25 | 185725 | 207649
10 | 46:08.50 | 5:05.57 | 207650 | 230581
11 | 51:14.32 | 2:00.50 | 230582 | 239631
12 | 53:15.07 | 3:43.13 | 239632 | 256369
13 | 56:58.20 | 6:07.65 | 256370 | 283959
14 | 63:06.10 | 3:49.10 | 283960 | 301144

Bereichsstatus und Fehler

Gewählter Bereich

Dateiname D:\Bluemchen - Diskografie\1996 - Herzfrequenz\Blümchen - Herzfrequenz.wav

Spitzenpegel 99.9 %
Bereichsqualität 99.9 %
Kopie CRC CE537E01
Kopie OK

Keine Fehler aufgetreten

AccurateRip Übersicht

Track 1 akkurat gelesen (Zuversicht 2) [5D31F0DD]
Track 2 akkurat gelesen (Zuversicht 2) [CBB8D4FF]
Track 3 akkurat gelesen (Zuversicht 2) [EC4AAD58]
Track 4 akkurat gelesen (Zuversicht 2) [EA3A120A]
Track 5 akkurat gelesen (Zuversicht 2) [D38CF8BA]
Track 6 akkurat gelesen (Zuversicht 2) [CCEAD23F]
Track 7 akkurat gelesen (Zuversicht 2) [9CDAA824]
Track 8 akkurat gelesen (Zuversicht 2) [7D55BB93]
Track 9 akkurat gelesen (Zuversicht 2) [98526D56]
Track 10 akkurat gelesen (Zuversicht 2) [EFA51F49]
Track 11 akkurat gelesen (Zuversicht 2) [AA46D64D]
Track 12 akkurat gelesen (Zuversicht 2) [E763AD50]
Track 13 akkurat gelesen (Zuversicht 2) [3C9A74C6]
Track 14 akkurat gelesen (Zuversicht 2) [AFAEF4A7]

Alle Tracks wurden akkurat gelesen

Ende des Statusreports

01. Nur geträumt 03:44
02. Schmetterlinge 05:52
03. Du bist die Insel 05:22
04. Er liebt mich 04:57
05. Übermorgenland 05:21
06. Gib mir noch Zeit 04:12
07. Eisblumen 05:33
08. Reise durch die Zeit 05:31
09. Achterbahn 04:11
10. Engel der Nacht 05:20
11. S.O.S. - Herz in Not 04:35
12. Verrückte Jungs 05:10
Exact Audio Copy V0.99 prebeta 4 from 23. January 2008

EAC Auslese-Logdatei vom 15. Januar 2009, 12:59

Blümchen / verliebt...

Benutztes Laufwerk : HL-DT-STDVD-ROM GDR-H30N Adapter: 0 ID: 1

Lesemodus : Sicher
Benutze Accurate Stream : Ja
Audio Puffer abgeschaltet : Ja
Benutze C2 Fehlerinformationen : Nein

Leseoffset Korrektur : 6
Überlesen in das Lead-In und Lead-Out : Nein
Fülle fehlende Offsetsample mit Stille auf : Ja
Lösche führende und nachfolgende stille Blöcke : Nein
Null Samples gehen in CRC Berechnungen ein : Ja
Benutzte Schnittstelle : Installierte externe ASPI Schnittstelle

Benutztes Ausgabeformat : Interne WAV Routinen
Sampleformat : 44.100 Hz; 16 Bit; Stereo

TOC der ausgelesenen CD

Track | Start | Länge | Startsektor | Endsektor
-------------------------------------------------------
1 | 0:00.00 | 3:44.42 | 0 | 16841
2 | 3:44.42 | 5:52.00 | 16842 | 43241
3 | 9:36.42 | 5:22.10 | 43242 | 67401
4 | 14:58.52 | 4:57.38 | 67402 | 89714
5 | 19:56.15 | 5:21.10 | 89715 | 113799
6 | 25:17.25 | 4:12.67 | 113800 | 132766
7 | 29:30.17 | 5:33.68 | 132767 | 157809
8 | 35:04.10 | 5:31.05 | 157810 | 182639
9 | 40:35.15 | 4:11.55 | 182640 | 201519
10 | 44:46.70 | 5:20.55 | 201520 | 225574
11 | 50:07.50 | 4:35.20 | 225575 | 246219
12 | 54:42.70 | 5:10.12 | 246220 | 269481

Bereichsstatus und Fehler

Gewählter Bereich

Dateiname C:\Dokumente und Einstellungen\Boris\Eigene Dateien\Bluemchen - Diskografie\Albums\1997 - Verliebt... (Die Goldedition)\Blümchen - verliebt....wav

Spitzenpegel 100.0 %
Bereichsqualität 100.0 %
Kopie CRC 47183EFD
Kopie OK

Keine Fehler aufgetreten

AccurateRip Übersicht

Track 1 akkurat gelesen (Zuversicht 6) [BE038DBD]
Track 2 akkurat gelesen (Zuversicht 6) [F89DE20D]
Track 3 akkurat gelesen (Zuversicht 6) [C497E236]
Track 4 akkurat gelesen (Zuversicht 6) [5C14B61A]
Track 5 akkurat gelesen (Zuversicht 6) [5DBD0B61]
Track 6 akkurat gelesen (Zuversicht 6) [E586E325]
Track 7 akkurat gelesen (Zuversicht 6) [708AF601]
Track 8 akkurat gelesen (Zuversicht 6) [FDEA22EB]
Track 9 akkurat gelesen (Zuversicht 6) [9F75360A]
Track 10 akkurat gelesen (Zuversicht 6) [282E2A42]
Track 11 akkurat gelesen (Zuversicht 6) [22C34B0A]
Track 12 akkurat gelesen (Zuversicht 6) [94939095]

Alle Tracks wurden akkurat gelesen

Ende des Statusreports

01. Nur geträumt 03:44
02. Schmetterlinge 05:52
03. Du bist die Insel 05:22
04. Er liebt mich 04:57
05. Übermorgenland 05:21
06. Gib mir noch Zeit 04:12
07. Eisblumen 05:34
08. Reise durch die Zeit 05:30
09. Achterbahn 04:11
10. Engel der Nacht 05:20
11. S.O.S. - Herz in Not 04:35
12. Verrückte Jungs 05:10
13. Sesam Jam (Der, Die, Das) 03:33
14. Hit - Medley 05:13
Exact Audio Copy V0.99 prebeta 3 from 28. July 2007

EAC Auslese-Logdatei vom 18. März 2008, 3:13

Blümchen / Verliebt

Benutztes Laufwerk : SONY DVD RW DW-Q31A Adapter: 0 ID: 0

Lesemodus : Sicher
Benutze Accurate Stream : Ja
Audio Puffer abgeschaltet : Ja
Benutze C2 Fehlerinformationen : Nein

Leseoffset Korrektur : 6
Überlesen in das Lead-In und Lead-Out : Nein
Fülle fehlende Offsetsample mit Stille auf : Ja
Lösche führende und nachfolgende stille Blöcke : Nein
Null Samples gehen in CRC Berechnungen ein : Ja
Benutzte Schnittstelle : Installierte externe ASPI Schnittstelle

Benutztes Ausgabeformat : Interne WAV Routinen
Sampleformat : 44.100 Hz; 16 Bit; Stereo

TOC der ausgelesenen CD

Track | Start | Länge | Startsektor | Endsektor
-------------------------------------------------------
1 | 0:00.00 | 3:44.32 | 0 | 16831
2 | 3:44.32 | 5:52.00 | 16832 | 43231
3 | 9:36.32 | 5:22.10 | 43232 | 67391
4 | 14:58.42 | 4:57.20 | 67392 | 89686
5 | 19:55.62 | 5:21.08 | 89687 | 113769
6 | 25:16.70 | 4:12.67 | 113770 | 132736
7 | 29:29.62 | 5:34.10 | 132737 | 157796
8 | 35:03.72 | 5:30.63 | 157797 | 182609
9 | 40:34.60 | 4:11.57 | 182610 | 201491
10 | 44:46.42 | 5:20.50 | 201492 | 225541
11 | 50:07.17 | 4:35.40 | 225542 | 246206
12 | 54:42.57 | 5:10.48 | 246207 | 269504
13 | 59:53.30 | 3:33.65 | 269505 | 285544
14 | 63:27.20 | 5:13.12 | 285545 | 309031

Bereichsstatus und Fehler

Gewählter Bereich

Dateiname D:\Bluemchen - Diskografie\1997 - Verliebt... (Die Fanedition)\Blümchen - Verliebt.wav

Spitzenpegel 100.0 %
Bereichsqualität 100.0 %
Kopie CRC 43A14F6F
Kopie OK

Keine Fehler aufgetreten

AccurateRip Übersicht

Track 1 nicht in Datenbank enthalten
Track 2 nicht in Datenbank enthalten
Track 3 nicht in Datenbank enthalten
Track 4 nicht in Datenbank enthalten
Track 5 nicht in Datenbank enthalten
Track 6 nicht in Datenbank enthalten
Track 7 nicht in Datenbank enthalten
Track 8 nicht in Datenbank enthalten
Track 9 nicht in Datenbank enthalten
Track 10 nicht in Datenbank enthalten
Track 11 nicht in Datenbank enthalten
Track 12 nicht in Datenbank enthalten
Track 13 nicht in Datenbank enthalten
Track 14 nicht in Datenbank enthalten

Keiner der Tracks ist in der AccurateRip Datenbank vorhanden

Ende des Statusreports

01. Ich bin wieder hier 03:51
02. Automatisch 05:10
03. Blaue Augen 03:43
04. Immer noch verliebt 06:46
05. Denk noch mal drüber nach 04:43
06. Willkommen im meinem Garten 05:57
07. Hand in Hand (Gewalt ist doof) 05:10
08. Ganz bald 05:31
09. Der Beste von allen 05:02
10. U-Bahn 06:00
11. So wie ein Wunder 05:00
12. Nur für euch 05:42
13. Es ist vorbei 04:34
Exact Audio Copy V0.99 prebeta 3 from 28. July 2007

EAC Auslese-Logdatei vom 9. November 2008, 9:48

Blümchen / Jasmin

Benutztes Laufwerk : HL-DT-STDVD-ROM GDR-H30N Adapter: 0 ID: 1

Lesemodus : Sicher
Benutze Accurate Stream : Ja
Audio Puffer abgeschaltet : Ja
Benutze C2 Fehlerinformationen : Nein

Leseoffset Korrektur : 6
Überlesen in das Lead-In und Lead-Out : Nein
Fülle fehlende Offsetsample mit Stille auf : Ja
Lösche führende und nachfolgende stille Blöcke : Nein
Null Samples gehen in CRC Berechnungen ein : Ja
Benutzte Schnittstelle : Installierte externe ASPI Schnittstelle

Benutztes Ausgabeformat : Interne WAV Routinen
Sampleformat : 44.100 Hz; 16 Bit; Stereo

TOC der ausgelesenen CD

Track | Start | Länge | Startsektor | Endsektor
-------------------------------------------------------
1 | 0:00.00 | 3:51.32 | 0 | 17356
2 | 3:51.32 | 5:10.30 | 17357 | 40636
3 | 9:01.62 | 3:43.25 | 40637 | 57386
4 | 12:45.12 | 6:46.55 | 57387 | 87891
5 | 19:31.67 | 4:43.73 | 87892 | 109189
6 | 24:15.65 | 5:57.72 | 109190 | 136036
7 | 30:13.62 | 5:10.20 | 136037 | 159306
8 | 35:24.07 | 5:31.20 | 159307 | 184151
9 | 40:55.27 | 5:02.48 | 184152 | 206849
10 | 45:58.00 | 6:00.22 | 206850 | 233871
11 | 51:58.22 | 5:00.70 | 233872 | 256441
12 | 56:59.17 | 5:42.38 | 256442 | 282129
13 | 62:41.55 | 4:34.55 | 282130 | 302734

Bereichsstatus und Fehler

Gewählter Bereich

Dateiname C:\Bluemchen - Diskografie\1999 - Jasmin\Blümchen - Jasmin.wav

Spitzenpegel 100.0 %
Bereichsqualität 100.0 %
Kopie CRC 874320BF
Kopie OK

Keine Fehler aufgetreten

AccurateRip Übersicht

Track 1 akkurat gelesen (Zuversicht 8) [297E0928]
Track 2 akkurat gelesen (Zuversicht 7) [A0F39046]
Track 3 akkurat gelesen (Zuversicht 8) [74630D79]
Track 4 akkurat gelesen (Zuversicht 8) [D933DAD6]
Track 5 akkurat gelesen (Zuversicht 8) [023CE32D]
Track 6 akkurat gelesen (Zuversicht 8) [7CA33CF2]
Track 7 akkurat gelesen (Zuversicht 7) [255DAAFF]
Track 8 akkurat gelesen (Zuversicht 7) [44F79172]
Track 9 akkurat gelesen (Zuversicht 7) [CC3A4327]
Track 10 akkurat gelesen (Zuversicht 6) [B21E7838]
Track 11 akkurat gelesen (Zuversicht 6) [8A5236D0]
Track 12 akkurat gelesen (Zuversicht 6) [64ABEBE0]
Track 13 akkurat gelesen (Zuversicht 5) [8DA1374E]

Alle Tracks wurden akkurat gelesen

Ende des Statusreports

01. Ich bin wieder hier 03:50
02. Automatisch 05:10
03. Blaue Augen 03:43
04. Immer noch verliebt 06:46
05. Denk noch mal drüber nach 04:44
06. Willkommen in meinem Garten 05:57
07. Hand in Hand (Gewalt ist Doof) 05:09
08. Ganz bald 05:31
09. Der beste von allen 05:02
10. U-Bahn 06:00
11. So wie ein Wunder 05:00
12. Nur für Euch 05:43
13. Es ist vorbei 04:36
14. Heut' ist mein Tag 03:36
15. Blümchen feat. Yta Farrow / Tu es mon Île 03:31
Exact Audio Copy V0.99 prebeta 3 from 28. July 2007

EAC Auslese-Logdatei vom 18. März 2008, 4:11

Blümchen / Jasmin - Die Fanedition

Benutztes Laufwerk : SONY DVD RW DW-Q31A Adapter: 0 ID: 0

Lesemodus : Sicher
Benutze Accurate Stream : Ja
Audio Puffer abgeschaltet : Ja
Benutze C2 Fehlerinformationen : Nein

Leseoffset Korrektur : 6
Überlesen in das Lead-In und Lead-Out : Nein
Fülle fehlende Offsetsample mit Stille auf : Ja
Lösche führende und nachfolgende stille Blöcke : Nein
Null Samples gehen in CRC Berechnungen ein : Ja
Benutzte Schnittstelle : Installierte externe ASPI Schnittstelle

Benutztes Ausgabeformat : Interne WAV Routinen
Sampleformat : 44.100 Hz; 16 Bit; Stereo

TOC der ausgelesenen CD

Track | Start | Länge | Startsektor | Endsektor
-------------------------------------------------------
1 | 0:00.00 | 3:50.67 | 0 | 17316
2 | 3:50.67 | 5:10.30 | 17317 | 40596
3 | 9:01.22 | 3:43.28 | 40597 | 57349
4 | 12:44.50 | 6:46.45 | 57350 | 87844
5 | 19:31.20 | 4:44.22 | 87845 | 109166
6 | 24:15.42 | 5:57.60 | 109167 | 136001
7 | 30:13.27 | 5:09.45 | 136002 | 159221
8 | 35:22.72 | 5:31.68 | 159222 | 184114
9 | 40:54.65 | 5:02.30 | 184115 | 206794
10 | 45:57.20 | 6:00.37 | 206795 | 233831
11 | 51:57.57 | 5:00.08 | 233832 | 256339
12 | 56:57.65 | 5:43.40 | 256340 | 282104
13 | 62:41.30 | 4:36.07 | 282105 | 302811
14 | 67:17.37 | 3:36.40 | 302812 | 319051
15 | 70:54.02 | 3:31.70 | 319052 | 334946

Bereichsstatus und Fehler

Gewählter Bereich

Dateiname D:\Bluemchen - Diskografie\1999 - Jasmin (Die Fanedition)\Blümchen - Jasmin - Die Fanedition.wav

Spitzenpegel 100.0 %
Bereichsqualität 100.0 %
Kopie CRC FBD74845
Kopie OK

Keine Fehler aufgetreten

AccurateRip Übersicht

Track 1 akkurat gelesen (Zuversicht 4) [5F35E520]
Track 2 akkurat gelesen (Zuversicht 4) [DB248BF3]
Track 3 akkurat gelesen (Zuversicht 4) [76DA9384]
Track 4 akkurat gelesen (Zuversicht 4) [A665E7DF]
Track 5 akkurat gelesen (Zuversicht 4) [4E949456]
Track 6 akkurat gelesen (Zuversicht 4) [75AE9356]
Track 7 akkurat gelesen (Zuversicht 4) [295D4175]
Track 8 akkurat gelesen (Zuversicht 4) [FD449AD2]
Track 9 akkurat gelesen (Zuversicht 4) [0C2FDF69]
Track 10 akkurat gelesen (Zuversicht 4) [F25C21DC]
Track 11 akkurat gelesen (Zuversicht 4) [CE5DD806]
Track 12 akkurat gelesen (Zuversicht 4) [A7A035DB]
Track 13 akkurat gelesen (Zuversicht 4) [52CD70F9]
Track 14 akkurat gelesen (Zuversicht 4) [2A15ACF8]
Track 15 akkurat gelesen (Zuversicht 4) [DB8E6E07]

Alle Tracks wurden akkurat gelesen

Ende des Statusreports

01. Ich bin wieder hier 04:18
02. Automatisch 06:00
03. Nur getraumt 03:49
04. Willkommen in meinem Garten 04:19
05. U-Bahn 05:36
06. Boomerang 04:49
07. Gib mir noch Zeit 04:37
08. So wie ein Wunder 05:22
09. Denk noch mal druber nach 04:21
10. Du und ich 01:07
11. Blaue Augen 01:14
12. Kleiner Satelit (Piep Piep) 01:06
13. Bicycle Race 01:56
14. Es ist vorbei 05:19
15. Nur fur euch 05:12
16. Verruckte Jungs 04:30
17. Herz an Herz 04:47
18. Unter'm Weihnachtsbaum 03:43
Exact Audio Copy V0.99 prebeta 3 from 28. July 2007

EAC Auslese-Logdatei vom 18. März 2008, 11:14

Blumchen / Live In Berlin

Benutztes Laufwerk : SONY DVD RW DW-Q31A Adapter: 0 ID: 0

Lesemodus : Sicher
Benutze Accurate Stream : Ja
Audio Puffer abgeschaltet : Ja
Benutze C2 Fehlerinformationen : Nein

Leseoffset Korrektur : 6
Überlesen in das Lead-In und Lead-Out : Nein
Fülle fehlende Offsetsample mit Stille auf : Ja
Lösche führende und nachfolgende stille Blöcke : Nein
Null Samples gehen in CRC Berechnungen ein : Ja
Benutzte Schnittstelle : Installierte externe ASPI Schnittstelle

Benutztes Ausgabeformat : Interne WAV Routinen
Sampleformat : 44.100 Hz; 16 Bit; Stereo

TOC der ausgelesenen CD

Track | Start | Länge | Startsektor | Endsektor
-------------------------------------------------------
1 | 0:00.00 | 4:18.32 | 0 | 19381
2 | 4:18.32 | 6:00.08 | 19382 | 46389
3 | 10:18.40 | 3:49.27 | 46390 | 63591
4 | 14:07.67 | 4:19.50 | 63592 | 83066
5 | 18:27.42 | 5:36.25 | 83067 | 108291
6 | 24:03.67 | 4:49.45 | 108292 | 130011
7 | 28:53.37 | 4:37.23 | 130012 | 150809
8 | 33:30.60 | 5:22.62 | 150810 | 175021
9 | 38:53.47 | 4:21.55 | 175022 | 194651
10 | 43:15.27 | 1:07.70 | 194652 | 199746
11 | 44:23.22 | 1:14.43 | 199747 | 205339
12 | 45:37.65 | 1:06.27 | 205340 | 210316
13 | 46:44.17 | 1:56.50 | 210317 | 219066
14 | 48:40.67 | 5:19.15 | 219067 | 243006
15 | 54:00.07 | 5:12.05 | 243007 | 266411
16 | 59:12.12 | 4:30.50 | 266412 | 286711
17 | 63:42.62 | 4:47.28 | 286712 | 308264
18 | 68:30.15 | 3:43.12 | 308265 | 325001

Bereichsstatus und Fehler

Gewählter Bereich

Dateiname D:\Bluemchen - Diskografie\1999 - Live in Berlin (Limited Edition)\Blumchen - Live In Berlin.wav

Spitzenpegel 99.9 %
Bereichsqualität 100.0 %
Kopie CRC 707D6531
Kopie OK

Keine Fehler aufgetreten

AccurateRip Übersicht

Track 1 akkurat gelesen (Zuversicht 3) [6651AE39]
Track 2 akkurat gelesen (Zuversicht 3) [410C4B17]
Track 3 akkurat gelesen (Zuversicht 3) [A30F8AF3]
Track 4 akkurat gelesen (Zuversicht 3) [90ABECED]
Track 5 akkurat gelesen (Zuversicht 3) [F93B1F30]
Track 6 akkurat gelesen (Zuversicht 3) [8E11090C]
Track 7 akkurat gelesen (Zuversicht 3) [305ABC99]
Track 8 akkurat gelesen (Zuversicht 3) [709DC47D]
Track 9 akkurat gelesen (Zuversicht 3) [7BE85468]
Track 10 akkurat gelesen (Zuversicht 3) [CED1F06C]
Track 11 akkurat gelesen (Zuversicht 3) [B235A233]
Track 12 akkurat gelesen (Zuversicht 3) [69F4B5CC]
Track 13 akkurat gelesen (Zuversicht 3) [5B807694]
Track 14 akkurat gelesen (Zuversicht 3) [6AEFCDE3]
Track 15 akkurat gelesen (Zuversicht 3) [2DA6AEAA]
Track 16 akkurat gelesen (Zuversicht 3) [FE85D0DE]
Track 17 akkurat gelesen (Zuversicht 3) [77E441A2]
Track 18 akkurat gelesen (Zuversicht 2) [17E32B72]

Alle Tracks wurden akkurat gelesen

Ende des Statusreports

01. Die Welt Gehört Mir 04:15
02. Ist Deine Liebe Echt (Disco 2000 Radio Mix) 03:18
03. [email protected] 04:19
04. Geh'n Wie Ein Ägypter 03:53
05. Er Ist So Süss 03:49
06. Denkst Du Noch Manchmal An Mich? 03:44
07. Der Sommer Mit Dir 04:14
08. Detektive 04:22
09. Wie Der Blitz 04:31
10. Eisberg 04:59
11. Ich Vermisse Dich 03:30
12. Wär Ich Du 04:31
13. Taxi, Taxi 04:22
14. Ist Deine Liebe Echt (Kurzer Mix) 03:20
Exact Audio Copy V0.99 prebeta 3 from 28. July 2007

EAC Auslese-Logdatei vom 18. März 2008, 12:03

Blümchen / Die Welt Gehört Dir

Benutztes Laufwerk : SONY DVD RW DW-Q31A Adapter: 0 ID: 0

Lesemodus : Sicher
Benutze Accurate Stream : Ja
Audio Puffer abgeschaltet : Ja
Benutze C2 Fehlerinformationen : Nein

Leseoffset Korrektur : 6
Überlesen in das Lead-In und Lead-Out : Nein
Fülle fehlende Offsetsample mit Stille auf : Ja
Lösche führende und nachfolgende stille Blöcke : Nein
Null Samples gehen in CRC Berechnungen ein : Ja
Benutzte Schnittstelle : Installierte externe ASPI Schnittstelle

Benutztes Ausgabeformat : Interne WAV Routinen
Sampleformat : 44.100 Hz; 16 Bit; Stereo

TOC der ausgelesenen CD

Track | Start | Länge | Startsektor | Endsektor
-------------------------------------------------------
1 | 0:00.00 | 4:15.67 | 0 | 19191
2 | 4:15.67 | 3:18.60 | 19192 | 34101
3 | 7:34.52 | 4:19.30 | 34102 | 53556
4 | 11:54.07 | 3:53.00 | 53557 | 71031
5 | 15:47.07 | 3:49.43 | 71032 | 88249
6 | 19:36.50 | 3:44.25 | 88250 | 105074
7 | 23:21.00 | 4:14.27 | 105075 | 124151
8 | 27:35.27 | 4:22.08 | 124152 | 143809
9 | 31:57.35 | 4:31.57 | 143810 | 164191
10 | 36:29.17 | 4:59.35 | 164192 | 186651
11 | 41:28.52 | 3:30.43 | 186652 | 202444
12 | 44:59.20 | 4:31.65 | 202445 | 222834
13 | 49:31.10 | 4:22.47 | 222835 | 242531
14 | 53:53.57 | 3:20.68 | 242532 | 257599

Bereichsstatus und Fehler

Gewählter Bereich

Dateiname D:\Bluemchen - Diskografie\2000 - Die Welt gehoert dir\Blümchen - Die Welt Gehört Dir.wav

Spitzenpegel 100.0 %
Bereichsqualität 100.0 %
Kopie CRC 9179D861
Kopie OK

Keine Fehler aufgetreten

AccurateRip Übersicht

Track 1 akkurat gelesen (Zuversicht 3) [99EE4695]
Track 2 akkurat gelesen (Zuversicht 3) [DF426783]
Track 3 akkurat gelesen (Zuversicht 3) [AE199AF3]
Track 4 akkurat gelesen (Zuversicht 3) [144BB29C]
Track 5 akkurat gelesen (Zuversicht 3) [A84CE61A]
Track 6 akkurat gelesen (Zuversicht 3) [0AD9D1C6]
Track 7 akkurat gelesen (Zuversicht 3) [F26F27B9]
Track 8 akkurat gelesen (Zuversicht 3) [AAE5CE4B]
Track 9 akkurat gelesen (Zuversicht 3) [22C43616]
Track 10 akkurat gelesen (Zuversicht 4) [1B8C0911]
Track 11 akkurat gelesen (Zuversicht 4) [3C806DED]
Track 12 akkurat gelesen (Zuversicht 4) [9C8CFB16]
Track 13 akkurat gelesen (Zuversicht 4) [825E3FD6]
Track 14 akkurat gelesen (Zuversicht 4) [9C119998]

Alle Tracks wurden akkurat gelesen

Ende des Statusreports

CD1

01. Herz an Herz (Herz in der Luft Radio Mix) 03:45
02. Kleiner Satellit (Satellit in der Luft Mix) 03:59
03. Du und ich (Du in der Luft Mix) 03:31
04. Boomerang (Boomerang in der Luft Mix) 03:48
05. Bicycle Race (On The Air Mix) 03:50
06. Herzen haben Flügel (Album Mix) 06:29
07. Odysee in 3D (Album Mix) 04:49
08. Nur geträumt (Traum in der Luft Mix) 03:44
09. Gib mir noch Zeit (Zeitloser Radio Mix) 03:47
10. Verrückte Jungs (Jungs in der Luft Mix) 03:49
11. Schmetterlinge (Album Mix) 05:50
12. Eisblumen (Album Mix) 05:33
13. Engel der Nacht (Album Mix) 05:19
14. Du bist die Insel (Album Mix) 05:22
15. Ich bin wieder hier (Käpt'n Nemos Radio Mix) 03:50
16. Es ist vorbei (Radio Mix) 03:33

CD2

01. Heut' ist mein Tag (Radio Edit) 03:34
02. U-Bahn (Album Mix) 05:57
03. Nur für euch (Album Mix) 05:40
04. Ganz bald (Album Mix) 05:31
05. Ist deine Liebe echt (Disco 2000 Radio Mix) 03:17
06. Geh'n wie ein Ägypter (Kurzer Mix) 03:23
07. Er ist so süss (Album Mix) 03:48
08. Ich vermisse dich (Album Mix) 03:28
09. Es ist nie vorbei (Duett mit E-Type) 03:06
10. Kleiner Satellit (Piep 2000 Mix) 04:36
11. Du und ich (Bruno Mix 2000) 03:58
12. Gib mir noch Zeit (Lagerfeuer-Remix 2000) 03:24
13. Schmetterlinge (MCP Remix) 04:06
14. Du bist die Insel (Reif für die Insel Remix 2000) 05:57
15. Es ist vorbei (Feuerzeug Remix) 03:21
16. U-Bahn (2step 2000 Remix) 05:16
17. Geh'n wie ein Ägypter (Langer Ägypter Mix) 05:26
Exact Audio Copy V0.99 prebeta 3 from 28. July 2007

EAC Auslese-Logdatei vom 19. März 2008, 1:06

Blümchen / Für Immer Und Ewig - CD1

Benutztes Laufwerk : SONY DVD RW DW-Q31A Adapter: 0 ID: 0

Lesemodus : Sicher
Benutze Accurate Stream : Ja
Audio Puffer abgeschaltet : Ja
Benutze C2 Fehlerinformationen : Nein

Leseoffset Korrektur : 6
Überlesen in das Lead-In und Lead-Out : Nein
Fülle fehlende Offsetsample mit Stille auf : Ja
Lösche führende und nachfolgende stille Blöcke : Nein
Null Samples gehen in CRC Berechnungen ein : Ja
Benutzte Schnittstelle : Installierte externe ASPI Schnittstelle

Benutztes Ausgabeformat : Interne WAV Routinen
Sampleformat : 44.100 Hz; 16 Bit; Stereo

TOC der ausgelesenen CD

Track | Start | Länge | Startsektor | Endsektor
-------------------------------------------------------
1 | 0:00.00 | 3:45.07 | 0 | 16881
2 | 3:45.07 | 3:59.13 | 16882 | 34819
3 | 7:44.20 | 3:31.62 | 34820 | 50706
4 | 11:16.07 | 3:48.25 | 50707 | 67831
5 | 15:04.32 | 3:50.25 | 67832 | 85106
6 | 18:54.57 | 6:29.00 | 85107 | 114281
7 | 25:23.57 | 4:49.33 | 114282 | 135989
8 | 30:13.15 | 3:44.10 | 135990 | 152799
9 | 33:57.25 | 3:47.09 | 152800 | 169833
10 | 37:44.34 | 3:49.33 | 169834 | 187041
11 | 41:33.67 | 5:50.45 | 187042 | 213336
12 | 47:24.37 | 5:33.45 | 213337 | 238356
13 | 52:58.07 | 5:19.25 | 238357 | 262306
14 | 58:17.32 | 5:22.08 | 262307 | 286464
15 | 63:39.40 | 3:50.70 | 286465 | 303784
16 | 67:30.35 | 3:33.42 | 303785 | 319801

Bereichsstatus und Fehler

Gewählter Bereich

Dateiname D:\Bluemchen - Diskografie\2003 - Best Of\Bluemchen - Best Of (CD1)\Blümchen - Für Immer Und Ewig - CD1.wav

Spitzenpegel 99.9 %
Bereichsqualität 99.9 %
Kopie CRC 106D23CC
Kopie OK

Keine Fehler aufgetreten

AccurateRip Übersicht

Track 1 akkurat gelesen (Zuversicht 3) [B0771DFD]
Track 2 akkurat gelesen (Zuversicht 3) [39619430]
Track 3 akkurat gelesen (Zuversicht 3) [D9BDF3D3]
Track 4 akkurat gelesen (Zuversicht 3) [FCEF999F]
Track 5 akkurat gelesen (Zuversicht 3) [6ACC6260]
Track 6 akkurat gelesen (Zuversicht 3) [2F4A184A]
Track 7 akkurat gelesen (Zuversicht 3) [F553B989]
Track 8 akkurat gelesen (Zuversicht 3) [18B8FD9D]
Track 9 akkurat gelesen (Zuversicht 3) [F8B5C110]
Track 10 akkurat gelesen (Zuversicht 3) [7EAE984C]
Track 11 kann nicht als akkurat verifiziert werden (Zuversicht 2) [C6A1E47C], AccurateRip lieferte [1360EACC]
Track 12 akkurat gelesen (Zuversicht 3) [4D77590F]
Track 13 akkurat gelesen (Zuversicht 3) [2151295A]
Track 14 akkurat gelesen (Zuversicht 3) [E4F459D2]
Track 15 akkurat gelesen (Zuversicht 3) [6A8B2A7E]
Track 16 akkurat gelesen (Zuversicht 3) [A7952A31]

15 Track(s) akkurat gelesen
1 Track(s) nicht als akkurat verifiziert

Einige Tracks konnten nicht als akkurat verifiziert werden

Ende des Statusreports
Exact Audio Copy V0.99 prebeta 3 from 28. July 2007

EAC Auslese-Logdatei vom 19. März 2008, 2:09

Blümchen / Für immer und ewig - CD 2

Benutztes Laufwerk : SONY DVD RW DW-Q31A Adapter: 0 ID: 0

Lesemodus : Sicher
Benutze Accurate Stream : Ja
Audio Puffer abgeschaltet : Ja
Benutze C2 Fehlerinformationen : Nein

Leseoffset Korrektur : 6
Überlesen in das Lead-In und Lead-Out : Nein
Fülle fehlende Offsetsample mit Stille auf : Ja
Lösche führende und nachfolgende stille Blöcke : Nein
Null Samples gehen in CRC Berechnungen ein : Ja
Benutzte Schnittstelle : Installierte externe ASPI Schnittstelle

Benutztes Ausgabeformat : Interne WAV Routinen
Sampleformat : 44.100 Hz; 16 Bit; Stereo

TOC der ausgelesenen CD

Track | Start | Länge | Startsektor | Endsektor
-------------------------------------------------------
1 | 0:00.00 | 3:34.25 | 0 | 16074
2 | 3:34.25 | 5:57.07 | 16075 | 42856
3 | 9:31.32 | 5:40.43 | 42857 | 68399
4 | 15:12.00 | 5:31.30 | 68400 | 93254
5 | 20:43.30 | 3:17.50 | 93255 | 108079
6 | 24:01.05 | 3:23.70 | 108080 | 123374
7 | 27:25.00 | 3:48.10 | 123375 | 140484
8 | 31:13.10 | 3:28.27 | 140485 | 156111
9 | 34:41.37 | 3:06.55 | 156112 | 170116
10 | 37:48.17 | 4:36.35 | 170117 | 190851
11 | 42:24.52 | 3:58.13 | 190852 | 208714
12 | 46:22.65 | 3:24.27 | 208715 | 224041
13 | 49:47.17 | 4:06.05 | 224042 | 242496
14 | 53:53.22 | 5:57.20 | 242497 | 269291
15 | 59:50.42 | 3:21.68 | 269292 | 284434
16 | 63:12.35 | 5:16.52 | 284435 | 308186
17 | 68:29.12 | 5:26.15 | 308187 | 332651

Bereichsstatus und Fehler

Gewählter Bereich

Dateiname D:\Bluemchen - Diskografie\2003 - Best Of\Bluemchen - Best Of (CD2)\Blümchen - Für immer und ewig - CD 2.wav

Spitzenpegel 100.0 %
Bereichsqualität 100.0 %
Kopie CRC E320B296
Kopie OK

Keine Fehler aufgetreten

AccurateRip Übersicht

Track 1 akkurat gelesen (Zuversicht 2) [80208E6E]
Track 2 akkurat gelesen (Zuversicht 2) [F09D33FF]
Track 3 akkurat gelesen (Zuversicht 2) [9E9B227F]
Track 4 akkurat gelesen (Zuversicht 2) [299A5A85]
Track 5 akkurat gelesen (Zuversicht 2) [1E7BD3D2]
Track 6 akkurat gelesen (Zuversicht 2) [F823078A]
Track 7 akkurat gelesen (Zuversicht 2) [8A10E10D]
Track 8 akkurat gelesen (Zuversicht 2) [CFA0DD2E]
Track 9 akkurat gelesen (Zuversicht 2) [C707EE52]
Track 10 akkurat gelesen (Zuversicht 2) [C695E9BA]
Track 11 akkurat gelesen (Zuversicht 2) [56A2BEBD]
Track 12 akkurat gelesen (Zuversicht 2) [8E4A84AD]
Track 13 akkurat gelesen (Zuversicht 2) [DEFE7AA2]
Track 14 akkurat gelesen (Zuversicht 2) [530F560D]
Track 15 akkurat gelesen (Zuversicht 2) [58F12BF6]
Track 16 akkurat gelesen (Zuversicht 2) [7E21D3EF]
Track 17 akkurat gelesen (Zuversicht 2) [2FA160C9]

Alle Tracks wurden akkurat gelesen

Ende des Statusreports

   
Торрент: Зарегистрирован [07 янв 2013, 13:26] За каждые 2 ГБ. аплоада (сидирования) этого торрента начисляется бонус: 0.001 Бронзовая раздача - Скачанное не учитывается на 24% Скачать торрент
Скачать торрент
[ Размер 68.31 КБ / Просмотров 79 ]

Статус:
 
Приватный: Нет (DHT включён)
Размер: 8.88 ГБ (9 529 844 141 байт)
   

Торренты, на самом деле, это не символ пиратства, а зародыш утопического социализма. Деньги там ничего не значат, а все люди равны: нет богатых, нет бедных. Есть только трекеры и раздачи.
честно скопипастила с просторов инета
Аватара пользователя
Пир-флудер
Пир-флудер
 
Раздал: 1.05 ТБ
Скачал: 244.51 ГБ
Ратио: 4.438
Сообщения: 661
Зарегистрирован: 22 июл 2010, 06:58
Откуда: Волшебная страна ОЗ
  • Личное сообщение
  • Сайт

Вернуться в Lossless

Кто сейчас на конференции

Зарегистрированные пользователи: нет зарегистрированных пользователей

Ресурс не предоставляет электронные версии произведений, а занимается лишь коллекционированием и каталогизацией ссылок, присылаемых и публикуемых на форуме нашими читателями. Если вы являетесь правообладателем какого-либо представленного материала и не желаете чтобы ссылка на него находилась в нашем каталоге, свяжитесь с нами и мы незамедлительно удалим её. Файлы для обмена на трекере предоставлены пользователями сайта, и администрация не несёт ответственности за их содержание. Просьба не заливать файлы, защищенные авторскими правами, а также файлы нелегального содержания!
cron