Иван Царевич и Серый Волк 3 (2015) WEB-DL [H.264/1080p-LQ] скачать торрент

Русские мультики, наши мультфильмы, мультфильмы СССР, хорошие мультики

Модератор: Модераторы видео

  • Статистика раздачи
Размер: 2.91 ГБ   |  Зарегистрирован: 02 фев 2016, 01:27   |   .torrent скачан: 22 раз
Сидеров: 1713  [ 0 байт/сек ]     Личеров: 132  [ 0 байт/сек ]  
Список файлов : Кто скачал : Раздают : Скачивают : Кто благодарил : История : Не раздающие : Запрашивали сидеров : Внешние трекеры 
  

Иван Царевич и Серый Волк 3 (2015) WEB-DL [H.264/1080p-LQ]

Сообщение Админ » 02 фев 2016, 01:27

Иван Царевич и Серый Волк 3 (2015) WEB-DL [H.264/1080p-LQ]

Производство: Россия / Кинокомпания СТВ, Анимационная студия Мельница
Жанр: Приключения, Семейный

Режиссер: Дарина Шмидт
Персонажи: Никита Ефремов, Иван Охлобыстин, Михаил Боярский

Описание:
Царь Тридевятого царства, в честь своего 150-летия решил, что с него хватит — пора на заслуженный отдых. «Я устал. Я ухожу», — заявил самодержец и с удочкой и ведёрком удалился в деревенскую глушь. А оберегать государство остались Иван с Серым Волком. Вот только Василиса, жена Ивана, заявила, что свадебного путешествия у неё не было, заграницу она не видела, «постить» в инстаграм решительно нечего и вообще. Иван спорить не стал, а вместе с Василисой, Котом — ученым и Серым Волком, погрузился на ковер-самолет и отправился в путь. А за главного в стране герои оставили самое обычное огородное пугало… Но пока компания шаталась по Миланам и Парижам, Пугало ожило и начало наводить свои порядки в Тридевятом царстве…


Дата премьеры в России: 1 января 2016, «Наше Кино»

Продолжительность: 01:14:01
Качество видео: WEB-DL 1080p-LQ

Вид субтитров: Отсутствуют

Видео: AVC/H.264, 1920x1080, ~5120 kbps
Аудио#1: AC3, 2 ch, 384 kb/s (Русский)
Аудио#2: AAC, 2 ch, 140 kb/s(Русский)
Семпл: Скачать
Код:
Код: Выделить всё
Общее
Уникальный идентификатор                 : 202861264767037232795676116640157065090 (0x989DA88F559FCA0ABC22C96274D6DF82)
Полное имя                               : Iva.i.VoLLK.3.2O16.O.WEB-DLRip.1O8OP.nnm-club.mkv
Формат                                   : Matroska
Версия формата                           : Version 2
Размер файла                             : 2,91 Гбайт
Продолжительность                        : 1 ч. 14 м.
Общий поток                              : 5627 Кбит/сек
Дата кодирования                         : UTC 2016-02-01 14:28:51
Программа кодирования                    : mkvmerge v8.3.0 ('Over the Horizon') 64bit
Библиотека кодирования                   : libebml v1.3.1 + libmatroska v1.4.2

Видео
Идентификатор                            : 1
Формат                                   : AVC
Формат/Информация                        : Advanced Video Codec
Профиль формата                          : [email protected]
Параметр CABAC формата                   : Да
Параметр ReFrames формата                : 4 кадра
Идентификатор кодека                     : V_MPEG4/ISO/AVC
Продолжительность                        : 1 ч. 14 м.
Битрейт                                  : 5120 Кбит/сек
Ширина                                   : 1920 пикселей
Высота                                   : 1080 пикселей
Соотношение сторон                       : 16:9
Режим частоты кадров                     : Постоянный
Частота кадров                           : 25,000 кадров/сек
Цветовое пространство                    : YUV
Субдискретизация насыщенности            : 4:2:0
Битовая глубина                          : 8 бит
Тип развёртки                            : Прогрессивная
Бит/(Пиксели*Кадры)                      : 0.099
Размер потока                            : 2,64 Гбайт (91%)
Библиотека кодирования                   : x264 core 142
Настройки программы                      : cabac=1 / ref=3 / deblock=1:0:0 / analyse=0x3:0x113 / me=hex / subme=7 / psy=1 / psy_rd=1.00:0.00 / mixed_ref=1 / me_range=16 / chroma_me=1 / trellis=1 / 8x8dct=1 / cqm=0 / deadzone=21,11 / fast_pskip=1 / chroma_qp_offset=-2 / threads=48 / lookahead_threads=8 / sliced_threads=0 / nr=0 / decimate=1 / interlaced=0 / bluray_compat=0 / constrained_intra=0 / bframes=6 / b_pyramid=2 / b_adapt=1 / b_bias=0 / direct=1 / weightb=1 / open_gop=0 / weightp=2 / keyint=200 / keyint_min=20 / scenecut=0 / intra_refresh=0 / rc_lookahead=40 / rc=2pass / mbtree=1 / bitrate=5120 / ratetol=1.0 / qcomp=0.60 / qpmin=0 / qpmax=69 / qpstep=4 / cplxblur=20.0 / qblur=0.5 / vbv_maxrate=7680 / vbv_bufsize=20480 / nal_hrd=none / filler=0 / ip_ratio=1.40 / aq=1:1.00
Язык                                     : English
Default                                  : Да
Forced                                   : Нет

Аудио #1
Идентификатор                            : 2
Формат                                   : AC-3
Формат/Информация                        : Audio Coding 3
Расширение режима                        : CM (complete main)
Параметр Endianness формата              : Big
Идентификатор кодека                     : A_AC3
Продолжительность                        : 1 ч. 14 м.
Вид битрейта                             : Постоянный
Битрейт                                  : 384 Кбит/сек
Каналы                                   : 2 канала
Расположение каналов                     : Front: L R
Частота                                  : 48,0 КГц
Частота кадров                           : 31,250 кадров/сек (1536 spf)
Метод сжатия                             : С потерями
Размер потока                            : 203 Мбайт (7%)
Язык                                     : Russian
Default                                  : Да
Forced                                   : Нет

Аудио #2
Идентификатор                            : 3
Формат                                   : AAC
Формат/Информация                        : Advanced Audio Codec
Профиль формата                          : LC
Идентификатор кодека                     : A_AAC
Продолжительность                        : 1 ч. 14 м.
Битрейт                                  : 140 Кбит/сек
Каналы                                   : 2 канала
Расположение каналов                     : Front: L R
Частота                                  : 48,0 КГц
Частота кадров                           : 46,875 кадров/сек (1024 spf)
Метод сжатия                             : С потерями
Размер потока                            : 73,9 Мбайт (2%)
Язык                                     : Russian
Default                                  : Нет
Forced                                   : Нет

Скриншоты:

   
Торрент: Зарегистрирован [02 фев 2016, 01:27] Скачать торрент
Скачать торрент
О MediaGet
[ Размер 15.39 КБ / Просмотров 308 ]

Статус:
 
Приватный: Нет (DHT включён)
Размер: 2.91 ГБ (3 123 802 460 байт)
   
Аватара пользователя

Администратор
Администратор
 
Раздал: 2.33 ПБ
Скачал: 1.02 ПБ
Ратио: 2.281
Сообщения: 3723
Зарегистрирован: 07 май 2010, 17:29
Medals: 1
Лучший релиз за месяц (1)
  • Личное сообщение
  • ICQ

Вернуться в Отечественные мультфильмы (Rip's)

Кто сейчас на конференции

Зарегистрированные пользователи: нет зарегистрированных пользователей

Ресурс не предоставляет электронные версии произведений, а занимается лишь коллекционированием и каталогизацией ссылок, присылаемых и публикуемых на форуме нашими читателями. Если вы являетесь правообладателем какого-либо представленного материала и не желаете чтобы ссылка на него находилась в нашем каталоге, свяжитесь с нами и мы незамедлительно удалим её. Файлы для обмена на трекере предоставлены пользователями сайта, и администрация не несёт ответственности за их содержание. Просьба не заливать файлы, защищенные авторскими правами, а также файлы нелегального содержания!
cron