Джинглики (2015) WEB-DL [H.264/720p-LQ] (Сезон 1, серии 1- из ?) (Обновляемая) скачать торрент

Русские мультики, наши мультфильмы, мультфильмы СССР, хорошие мультики

Модератор: Модераторы видео

  • Статистика раздачи
Размер: 218.35 МБ   |  Зарегистрирован: 06 янв 2016, 16:42   |   .torrent скачан: 6 раз
Сидеров: 0  [ 0 байт/сек ]     Личеров: 0  [ 0 байт/сек ]  
Список файлов : Кто скачал : Раздают : Скачивают : Кто благодарил : История : Не раздающие : Запрашивали сидеров : Внешние трекеры 
  

Джинглики (2015) WEB-DL [H.264/720p-LQ] (Сезон 1, серии 1- из ?) (Обновляемая)

Сообщение Админ » 06 янв 2016, 16:42

Джинглики (2015) WEB-DL [H.264/720p-LQ]

Производство: Россия, Open Alliance Media
Жанр: Мультсериал, рисованный, детский

Режиссер: Антон Верещагин
Персонажи: Максим Тихонов, Элиза Мартиросова, Сергей Друзьяк, Софья Лебедева, Прохор Чеховской, Василий Аккерман, Наталья Терешкова, Диомид Виноградов, Антон Колесников

Описание:
Далеко-далеко от нас есть прекрасная страна Хэппиленд, где в волшебном городе Джингл-Сити живут маленькие человечки — Джинглики, весёлые и звонкие, словно колокольчики. В забавных приключениях, которые происходят в сказочном мире, без труда прочитываются всем привычные, знакомые и комичные жизненные ситуации.


Дата премьеры в России: 8 декабря 2015

Продолжительность: серия ~ 00:11:00
Качество видео: WEB-DL (720p)

Субтитры: Отсутствуют

Видео: MPEG-4 AVC, ~ 2569 Кбит/с, 1280x720
Аудио: AC3, 2 ch, 192 Кбит/с
Код:
Код: Выделить всё
General
Unique ID                   : 201274429782908480063728193012587066676 (0x976C0B8E05AF97F5B63A739C6CC87534)
Complete name               : D:\Джинглики 720р\01.mkv
Format                      : Matroska
Format version              : Version 2
File size                   : 218 MiB
Duration                    : 11mn 6s
Overall bit rate            : 2 750 Kbps
Encoded date                : UTC 2016-01-05 13:56:38
Writing application         : mkvmerge v6.1.0 ('Old Devil') built on Mar  4 2013 09:10:42
Writing library             : libebml v1.3.0 + libmatroska v1.4.0

Video
ID                          : 1
Format                      : AVC
Format/Info                 : Advanced Video Codec
Format profile              : [email protected]
Format settings, CABAC      : Yes
Format settings, ReFrames   : 4 frames
Codec ID                    : V_MPEG4/ISO/AVC
Duration                    : 11mn 6s
Bit rate                    : 2 569 Kbps
Width                       : 1 280 pixels
Height                      : 720 pixels
Display aspect ratio        : 16:9
Frame rate mode             : Constant
Frame rate                  : 25.000 fps
Color space                 : YUV
Chroma subsampling          : 4:2:0
Bit depth                   : 8 bits
Scan type                   : Progressive
Bits/(Pixel*Frame)          : 0.112
Stream size                 : 199 MiB (91%)
Writing library             : x264 core 142
Encoding settings           : cabac=1 / ref=3 / deblock=1:0:0 / analyse=0x3:0x113 / me=hex / subme=7 / psy=1 / psy_rd=1.00:0.00 / mixed_ref=1 / me_range=16 / chroma_me=1 / trellis=1 / 8x8dct=1 / cqm=0 / deadzone=21,11 / fast_pskip=1 / chroma_qp_offset=-2 / threads=48 / lookahead_threads=5 / sliced_threads=0 / nr=0 / decimate=1 / interlaced=0 / bluray_compat=0 / constrained_intra=0 / bframes=6 / b_pyramid=2 / b_adapt=1 / b_bias=0 / direct=1 / weightb=1 / open_gop=0 / weightp=2 / keyint=200 / keyint_min=20 / scenecut=0 / intra_refresh=0 / rc_lookahead=40 / rc=2pass / mbtree=1 / bitrate=2569 / ratetol=1.0 / qcomp=0.60 / qpmin=0 / qpmax=69 / qpstep=4 / cplxblur=20.0 / qblur=0.5 / vbv_maxrate=3854 / vbv_bufsize=10279 / nal_hrd=none / filler=0 / ip_ratio=1.40 / aq=1:1.00
Default                     : Yes
Forced                      : No

Audio
ID                          : 2
Format                      : AC-3
Format/Info                 : Audio Coding 3
Mode extension              : CM (complete main)
Format settings, Endianness : Big
Codec ID                    : A_AC3
Duration                    : 11mn 6s
Bit rate mode               : Constant
Bit rate                    : 192 Kbps
Channel(s)                  : 2 channels
Channel positions           : Front: L R
Sampling rate               : 48.0 KHz
Frame rate                  : 31.250 fps (1536 spf)
Compression mode            : Lossy
Stream size                 : 15.2 MiB (7%)
Default                     : Yes
Forced                      : No
Внимание! Раздача ведётся путём добавления новых серий; при каждом добавлении создаётся новый торрент.
Чтобы начать докачку новой серии, пользователям необходимо сделать следующее:
1. Остановить скачивание;
2. Удалить старый торрент у себя из клиента (старые серии удалять не надо);
3. Скачать новый торрент и запустить его у себя в клиенте вместо старого, при этом указать клиенту путь в старую папку куда и должно происходить скачивание новых серий. Ваш клиент при этом должен произвести хеширование (проверку) старой папки и будет докачивать только те серии, которых у вас ещё нет. Старые серии при этом не удаляются, а продолжают раздаваться! Eсли вы уже удалили старые серии, то предотвратить повторную закачку старых серий можно, отжав галочку в соответствующих местах при запуске нового торрента.
Скриншоты:

   
Торрент: Зарегистрирован [06 янв 2016, 16:42] Скачать торрент
Скачать торрент
[ Размер 34.88 КБ / Просмотров 268 ]

Статус:
 
Приватный: Нет (DHT включён)
Размер: 218.35 МБ (228 956 080 байт)
   
Аватара пользователя

Администратор
Администратор
 
Раздал: 2.33 ПБ
Скачал: 1.02 ПБ
Ратио: 2.281
Сообщения: 3722
Зарегистрирован: 07 май 2010, 17:29
Medals: 1
Лучший релиз за месяц (1)
  • Личное сообщение
  • ICQ

Вернуться в Отечественные мультфильмы (Rip's)

Кто сейчас на конференции

Зарегистрированные пользователи: нет зарегистрированных пользователей

cron
Ресурс не предоставляет электронные версии произведений, а занимается лишь коллекционированием и каталогизацией ссылок, присылаемых и публикуемых на форуме нашими читателями. Если вы являетесь правообладателем какого-либо представленного материала и не желаете чтобы ссылка на него находилась в нашем каталоге, свяжитесь с нами и мы незамедлительно удалим её. Файлы для обмена на трекере предоставлены пользователями сайта, и администрация не несёт ответственности за их содержание. Просьба не заливать файлы, защищенные авторскими правами, а также файлы нелегального содержания!
cron