Перевозчик / Серии: 1-12 из 16 (Сергей Полянский) [2016, Боевик, детектив HDTVRip] скачать торрент

Русские сериалы, все серии, все сезоны, последний сезон, новые серии

Модератор: Модераторы видео

  • Статистика раздачи
Размер: 6.73 ГБ   |  Зарегистрирован: 06 апр 2016, 04:07   |   .torrent скачан: 3 раз
Сидеров: 0  [ 0 байт/сек ]     Личеров: 0  [ 0 байт/сек ]  
Список файлов : Кто скачал : Раздают : Скачивают : Кто благодарил : История : Не раздающие : Запрашивали сидеров : Внешние трекеры 
  

Перевозчик / Серии: 1-12 из 16 (Сергей Полянский) [2016, Боевик, детектив HDTVRip]

Сообщение Админ » 29 мар 2016, 03:09

Перевозчик




Год выпуска: 2016
Производитель : Россия, "Форвард-фильм", "Центр кинопроизводства"
Жанр: боевик, детектив
Продолжительность: 45 мин.
Cубтитры: нет

Режиссер: Сергей Полянский
В ролях: Алексей Комашко, Николай Козак, Денис Рожков, Алексей Матошин, Игорь Баголей, Александр Кузьмин (II), Андрей Курилов, Юрий Лебедев (II), Бесо Гатаев, Дмитрий Янышевский, Камал Гасанов, Максим Деричев, Александр Воробьёв (II), Татьяна Демидова, Руслан Ягудин, Анна Проскурина, Никита Тезов, Алексей Шемес, Александр Штендлер, Анатолий Завьялов, Юрий Архангельский, Даниил Изотов, Денис Шевченко, Полина Тузовская, Зоя Кузьмина
Описание: Драматическая история закрутится вокруг Олега Грановского – положительного во всех смыслах парня – надежного друга, любящего мужа, заботливого отца. Олег Грановский (Алексей Комашко) и два его друга детства работают инкассаторами. Они везут огромную сумму, для зарплаты местного градообразующего комбината… Это последнее, что помнит Олег. Он приходит в сознание от жуткой головной боли, у него серьезная черепно-мозговая травма, он на больничной койке, а вокруг полицейские. Что произошло? Как он здесь оказался? Где его товарищи Сысоев и Чесноков? На эти вопросы есть ответы у начальника УГРО - гражданин Грановский обвиняется в убийстве своих коллег и похищении денег. Он под арестом. И для облегчения своей вины ему лучше здесь и сейчас признаться, куда он спрятал похищенные миллионы… Олег не может поверить в реальность происходящего, это всё страшный сон! С Сысоевым и Чесноковым они дружны еще с детдома, это его братья по несчастью. Они вместе росли, служили в армии, их дети ходят в одну школу. Он не мог их убить, он не мог их предать, он не похищал деньги. Но экспертиза оружия, мотив преступления и даже свидетельствования жены говорят об обратном. Однако хозяевам денег нет дела до мотивов. Если Грановский не вернет деньги – убьют его семью. Доведенный до края, Грановский бежит из тюрьмы, чтобы расследовать собственное преступление. Чем дальше он восстанавливает картину событий, тем к более страшным выводам он приходит: все это чудовищный обман, организованный самым близким человеком.

Сэмпл

Качество: HDTVRip
Формат: AVI
Видео кодек: XviD
Аудио кодек: AC3
Видео: 720x400 (1.80:1), 25 fps, XviD build 73 ~1548 kbps avg, 0.22 bit/pixel
Аудио: 48 kHz, AC3 Dolby Digital, 2/0 (L,R) ch, ~192.00 kbps avg
General
Complete name : F:\Video\Perevozchik.2015.HDTVRip.Files-x\01.Perevozchik.2015.HDTVRip.Files-x.avi
Format : AVI
Format/Info : Audio Video Interleave
File size : 550 MiB
Duration : 45mn 22s
Overall bit rate : 1 696 Kbps
Writing application : VirtualDubModRus 1.5.10.2 (build 2542/release)
Writing library : VirtualDubMod build 2542/release

Video
ID : 0
Format : MPEG-4 Visual
Format profile : Advanced [email protected]
Format settings, BVOP : 1
Format settings, QPel : No
Format settings, GMC : No warppoints
Format settings, Matrix : Custom
Codec ID : XVID
Codec ID/Hint : XviD
Duration : 45mn 22s
Bit rate : 1 494 Kbps
Width : 720 pixels
Height : 400 pixels
Display aspect ratio : 16:9
Frame rate : 25.000 fps
Color space : YUV
Chroma subsampling : 4:2:0
Bit depth : 8 bits
Scan type : Progressive
Compression mode : Lossy
Bits/(Pixel*Frame) : 0.208
Stream size : 485 MiB (88%)
Writing library : XviD 73

Audio
ID : 1
Format : AC-3
Format/Info : Audio Coding 3
Mode extension : CM (complete main)
Format settings, Endianness : Big
Codec ID : 2000
Duration : 45mn 22s
Bit rate mode : Constant
Bit rate : 192 Kbps
Channel(s) : 2 channels
Channel positions : Front: L R
Sampling rate : 48.0 KHz
Frame rate : 31.250 fps (1536 spf)
Compression mode : Lossy
Stream size : 62.3 MiB (11%)
Alignment : Split accross interleaves
Interleave, duration : 40 ms (1.00 video frame)
Interleave, preload duration : 500 ms
Внимание! Раздача ведётся путём добавления новых серий
Внимание! Раздача ведётся путём добавления новых серий; при каждом добавлении создётся новый торрент.
Чтобы начать докачку новой серии, пользователям необходимо сделать следующее:
1) остановить скачивание
2) удалить старый торрент у себя из клиента (старые серии удалять не надо)
3) скачать новый торрент и запустить его у себя в клиенте вместо старого, при этом указать клиенту путь в старую папку куда и должно происходить скачивание новых серий.
Ваш клиент при этом должен произвести хеширование (проверку) старой папки (если не производит сам - помогите ему сделать это), и будет докачивать только те серии которых у вас ещё нет. Старые серии при этом не удаляются, а продолжают раздаваться!
Eсли вы уже удалили старые серии, то предотвратить повторную закачку старых серий можно, отжав галочку в соответствовавших местах при запуске нового торрента.

   
Торрент: Зарегистрирован [06 апр 2016, 04:07] За каждые 2 ГБ. аплоада (сидирования) этого торрента начисляется бонус: 0.001 Скачать торрент
Скачать торрент
О MediaGet
[ Размер 18.33 КБ / Просмотров 154 ]

Статус:
 
Приватный: Нет (DHT включён)
Размер: 6.73 ГБ (7 223 889 920 байт)
   
Аватара пользователя

Администратор
Администратор
 
Раздал: 2.33 ПБ
Скачал: 1.02 ПБ
Ратио: 2.281
Сообщения: 3723
Зарегистрирован: 07 май 2010, 17:29
Medals: 1
Лучший релиз за месяц (1)
  • Личное сообщение
  • ICQ

  • Похожие торренты
    Ответы
    Просмотры
    Последнее сообщение

Вернуться в Отечественные сериалы

Кто сейчас на конференции

Зарегистрированные пользователи: нет зарегистрированных пользователей

Ресурс не предоставляет электронные версии произведений, а занимается лишь коллекционированием и каталогизацией ссылок, присылаемых и публикуемых на форуме нашими читателями. Если вы являетесь правообладателем какого-либо представленного материала и не желаете чтобы ссылка на него находилась в нашем каталоге, свяжитесь с нами и мы незамедлительно удалим её. Файлы для обмена на трекере предоставлены пользователями сайта, и администрация не несёт ответственности за их содержание. Просьба не заливать файлы, защищенные авторскими правами, а также файлы нелегального содержания!
cron