Полицейский с рублёвки / Сезон: 1 Серии: 1-8 (08) (Илья Куликов) [2016, Комедия, криминал, драма, SATRip] скачать торрент

Русские сериалы, все серии, все сезоны, последний сезон, новые серии

Модератор: Модераторы видео

  • Статистика раздачи
Размер: 4.66 ГБ   |  Зарегистрирован: 03 апр 2016, 22:32   |   .torrent скачан: 1025 раз
Сидеров: 3265  [ 0 байт/сек ]     Личеров: 387  [ 0 байт/сек ]  
Список файлов : Кто скачал : Раздают : Скачивают : Кто благодарил : История : Не раздающие : Запрашивали сидеров : Внешние трекеры 
  

Полицейский с рублёвки / Сезон: 1 Серии: 1-8 (08) (Илья Куликов) [2016, Комедия, криминал, драма, SATRip]

Сообщение Админ » 21 мар 2016, 22:33


Полицейский с рублёвки

Год выпуска: 2016
Производство: АВ Контент
Жанр: Комедия, криминал, драма
Продолжительность: ~ 00:50:00
Субтитры: нет
Режиссёр: Илья Куликов
В ролях: Александр Петров, Александра Бортич, Сергей Бурунов, Татьяна Бабенкова, Софья Каштанова, Роман Попов, Ростислав Гулбис, Анастасия Стежко, Лилия Лаврова, Виктория Тарасова, Анна Котова, Сергей Калашников, Сергей Штатнов, Владимир Рузанов
Описание: «Полицейский с Рублёвки» — это история о Грише Измайлове, полицейском, который призван охранять покой и порядок в самом элитном районе России, где живут невероятно богатые люди. Ему приходится расследовать дела, в которые впутываются жители Рублевки, и делает он это нередко превышая свои полномочия. Грише около 30 лет, он красив, одинок, богат, циничен, азартен и ко всему относится с изрядной долей черного юмора. Он заботится о младшей сестре-хулиганке, которую вынужден постоянно вытаскивать из неприятностей. Гриша не прикладывая усилий умеет нравиться женщинам и регулярно издевается над своим начальником Яковлевым.
Все раздачи сериала:

Качество: SATRip
Формат: AVI
Видео кодек: XviD
Аудио кодек: MP3
Видео: XviD, 720x400 (1.80:1), 25.000 fps, XviD build 50 ~1 534 kbps avg, 0.213 bit/pixel
Аудио: MP3, 48.0 KHz, 2 ch, 192 kbps avg
General
Complete name : D:\Фильмы\Полицейский с Рублёвки 2016 SATRip\Серия 1.avi
Format : AVI
Format/Info : Audio Video Interleave
File size : 622 MiB
Duration : 50mn 3s
Overall bit rate : 1 736 Kbps
Writing application : VirtualDubMod 1.5.10.3 (build 2550/release)
Writing library : VirtualDubMod build 2550/release
Video
ID : 0
Format : MPEG-4 Visual
Format profile : Advanced [email protected]
Format settings, BVOP : 1
Format settings, QPel : No
Format settings, GMC : No warppoints
Format settings, Matrix : Default (H.263)
Codec ID : XVID
Codec ID/Hint : XviD
Duration : 50mn 3s
Bit rate : 1 534 Kbps
Width : 720 pixels
Height : 400 pixels
Display aspect ratio : 16:9
Frame rate : 25.000 fps
Color space : YUV
Chroma subsampling : 4:2:0
Bit depth : 8 bits
Scan type : Progressive
Compression mode : Lossy
Bits/(Pixel*Frame) : 0.213
Stream size : 549 MiB (88%)
Writing library : XviD 67

Audio
ID : 1
Format : MPEG Audio
Format version : Version 1
Format profile : Layer 3
Mode : Joint stereo
Codec ID : 55
Codec ID/Hint : MP3
Duration : 50mn 3s
Bit rate mode : Constant
Bit rate : 192 Kbps
Channel(s) : 2 channels
Sampling rate : 48.0 KHz
Compression mode : Lossy
Stream size : 68.7 MiB (11%)
Alignment : Split accross interleaves
Interleave, duration : 40 ms (1.00 video frame)
Interleave, preload duratio : 500 ms
Writing library : LAME3.99C0Мq[юТЮрV


При каждом добавлении создаётся новый торрент. Чтобы начать докачку нового выпуска, пользователям необходимо сделать следующее:
● остановить скачивание;
● удалить старый торрент у себя из клиента (старые выпуски удалять не надо);
● скачать новый торрент и запустить его у себя в клиенте вместо старого, при этом указать клиенту путь в старую папку куда и должно происходить скачивание новых выпусков;
● ваш клиент при запуске должен произвести хеширование (проверку) старой папки (если не производит сам - помогите ему сделать это), и будет докачивать только те выпуски, которых у вас ещё нет. Старые выпуски при этом не удаляются, а продолжают раздаваться!,
● Eсли вы уже удалили старые выпуски, то предотвратить повторную закачку старых выпусков можно, отжав галочку в соответсвующих местах при запуске нового торрента.

   
Торрент: Зарегистрирован [03 апр 2016, 22:32] Скачать торрент
Скачать торрент
О MediaGet
[ Размер 24.3 КБ / Просмотров 194 ]

Статус:
 
Приватный: Нет (DHT включён)
Размер: 4.66 ГБ (4 998 596 608 байт)
   
Аватара пользователя

Администратор
Администратор
 
Раздал: 2.33 ПБ
Скачал: 1.02 ПБ
Ратио: 2.281
Сообщения: 3723
Зарегистрирован: 07 май 2010, 17:29
Medals: 1
Лучший релиз за месяц (1)
  • Личное сообщение
  • ICQ

  • Похожие торренты
    Ответы
    Просмотры
    Последнее сообщение

Re: Полицейский с рублёвки / Сезон: 1 Серии: 1-1 (08) (Илья Куликов) [2016, Комедия, криминал, драма, SATRip]

Сообщение Владимир83563 » 24 мар 2016, 19:34

ну взялся и где 2-3 серии? нахрена было постить, если дальше не будешь заниматься?
Аватара пользователя
Прохожий
Прохожий
 
Раздал: 27.44 ГБ
Скачал: 143.65 ГБ
Ратио: 0.191
Сообщения: 1
Зарегистрирован: 10 янв 2015, 13:40
  • Личное сообщение
  • Сайт

Re: Полицейский с рублёвки / Сезон: 1 Серии: 1-4 (08) (Илья Куликов) [2016, Комедия, криминал, драма, SATRip]

Сообщение Админ » 25 мар 2016, 01:51

1-4 серии
Аватара пользователя

Администратор
Администратор
 
Раздал: 2.33 ПБ
Скачал: 1.02 ПБ
Ратио: 2.281
Сообщения: 3723
Зарегистрирован: 07 май 2010, 17:29
Medals: 1
Лучший релиз за месяц (1)
  • Личное сообщение
  • ICQ


Вернуться в Отечественные сериалы

Кто сейчас на конференции

Зарегистрированные пользователи: нет зарегистрированных пользователей

Ресурс не предоставляет электронные версии произведений, а занимается лишь коллекционированием и каталогизацией ссылок, присылаемых и публикуемых на форуме нашими читателями. Если вы являетесь правообладателем какого-либо представленного материала и не желаете чтобы ссылка на него находилась в нашем каталоге, свяжитесь с нами и мы незамедлительно удалим её. Файлы для обмена на трекере предоставлены пользователями сайта, и администрация не несёт ответственности за их содержание. Просьба не заливать файлы, защищенные авторскими правами, а также файлы нелегального содержания!
cron