Истина в вине-2 / Сезон 2 / Серии: 1-4 из 4 (Дмитрий Сороки) [2015, Драма, мелодрама HDTVRip] скачать торрент

Русские сериалы, все серии, все сезоны, последний сезон, новые серии

Модератор: Модераторы видео

  • Статистика раздачи
Размер: 2.73 ГБ   |  Зарегистрирован: 21 мар 2016, 00:23   |   .torrent скачан: 1 раз
Сидеров: 0  [ 0 байт/сек ]     Личеров: 0  [ 0 байт/сек ]  
Список файлов : Кто скачал : Раздают : Скачивают : Кто благодарил : История : Не раздающие : Запрашивали сидеров : Внешние трекеры 
  

Истина в вине-2 / Сезон 2 / Серии: 1-4 из 4 (Дмитрий Сороки) [2015, Драма, мелодрама HDTVRip]

Сообщение Админ » 21 мар 2016, 00:29

Истина в вине-2




Год выпуска: 2015
Производство: ООО "Тесей"
Жанр: Драма, мелодрама
Продолжительность: 01:30:00
Субтитры: нет

Режиссёр: Дмитрий Сороки
В ролях: Никита Зверев, Яна Шивкова (Николаева), Елена Ветрова, Андрей Олиференко, Анастасия Сорокина, Данила Якушев, Игорь Кулачко, Владимир Румянцев, Евгений Кушпель, Олег Метелев

Описание: Жизнь топ-менеджера Виктории — это непрерывная гонка за успехом. В ее мире нет места для семейных ценностей и душевной теплоты, и Викторию это устраивает. Она уверена, что все покупается и все продается, вопрос лишь в цене. Но однажды, потеряв все, она вынуждена вернуться в фамильную усадьбу, которую завещал ей дедушка-винодел. Там Виктория сталкивается с чуждым незнакомым ей миром, частью которого она когда-то была. Вместе с родной землей Виктория обретает любимое дело и находит любовь — своего друга детства. Вместе они вступают в борьбу за свою землю, на которую претендуют рейдеры…

[img]http://rutracker.org/static.t-ru.org/smiles/icon_arrow.gif[/img] Релиз группа [img]http://s56.radikal.ru/i152/0905/99/5f5d3bf12488.gif[/img][img]http://i038.radikal.ru/1312/6f/3c3564f00ec6.png[/img]
[img]http://rutracker.org/static.t-ru.org/smiles/icon_arrow.gif[/img]
[img]http://rutracker.org/static.t-ru.org/smiles/icon_arrow.gif[/img] Сэмпл

Качество: HDTVRip
Формат: AVI
Видео кодек: XviD
Аудио кодек: AC3
Видео: 720x400 (1.80:1), 25 fps, XviD build 73 ~1950 kbps avg, 0.22 bit/pixel
Аудио: 48 kHz, AC3 Dolby Digital, 2/0 (L,R) ch, ~192.00 kbps avg
General
Complete name : X:\раздачи\Истина в вине-2.2015.HDTVRip.RG.Russkie.serialy.&.Files-x\01.Истина в вине-2.2015.HDTVRip.RG.Russkie.serialy.&.Files-x.avi
Format : AVI
Format/Info : Audio Video Interleave
File size : 1.37 GiB
Duration : 1h 32mn
Overall bit rate : 2 118 Kbps
Writing application : VirtualDubMod 1.5.10.3 | www.virtualdub-fr.org || (build 2550/release)
Writing library : VirtualDubMod build 2550/release

Video
ID : 0
Format : MPEG-4 Visual
Format profile : Advanced [email protected]
Format settings, BVOP : 1
Format settings, QPel : No
Format settings, GMC : No warppoints
Format settings, Matrix : Custom
Codec ID : XVID
Codec ID/Hint : XviD
Duration : 1h 32mn
Bit rate : 1 917 Kbps
Width : 720 pixels
Height : 400 pixels
Display aspect ratio : 16:9
Frame rate : 25.000 fps
Color space : YUV
Chroma subsampling : 4:2:0
Bit depth : 8 bits
Scan type : Progressive
Compression mode : Lossy
Bits/(Pixel*Frame) : 0.266
Stream size : 1.24 GiB (90%)
Writing library : XviD 73

Audio
ID : 1
Format : AC-3
Format/Info : Audio Coding 3
Mode extension : CM (complete main)
Format settings, Endianness : Big
Codec ID : 2000
Duration : 1h 32mn
Bit rate mode : Constant
Bit rate : 192 Kbps
Channel(s) : 2 channels
Channel positions : Front: L R
Sampling rate : 48.0 KHz
Frame rate : 31.250 fps (1536 spf)
Compression mode : Lossy
Stream size : 127 MiB (9%)
Alignment : Split accross interleaves
Interleave, duration : 40 ms (1.00 video frame)
Interleave, preload duration : 500 ms
Внимание! Раздача ведётся путём добавления новых серий
Внимание! Раздача ведётся путём добавления новых серий; при каждом добавлении создётся новый торрент.
Чтобы начать докачку новой серии, пользователям необходимо сделать следующее:
1) остановить скачивание
2) удалить старый торрент у себя из клиента (старые серии удалять не надо)
3) скачать новый торрент и запустить его у себя в клиенте вместо старого, при этом указать клиенту путь в старую папку куда и должно происходить скачивание новых серий.
Ваш клиент при этом должен произвести хеширование (проверку) старой папки (если не производит сам - помогите ему сделать это), и будет докачивать только те серии которых у вас ещё нет. Старые серии при этом не удаляются, а продолжают раздаваться!
Eсли вы уже удалили старые серии, то предотвратить повторную закачку старых серий можно, отжав галочку в соответствовавших местах при запуске нового торрента.
   
Торрент: Зарегистрирован [21 мар 2016, 00:23] Скачать торрент
Скачать торрент
О MediaGet
[ Размер 14.36 КБ / Просмотров 153 ]

Статус:
 
Приватный: Нет (DHT включён)
Размер: 2.73 ГБ (2 934 988 800 байт)
   
Аватара пользователя

Администратор
Администратор
 
Раздал: 2.33 ПБ
Скачал: 1.02 ПБ
Ратио: 2.281
Сообщения: 3723
Зарегистрирован: 07 май 2010, 17:29
Medals: 1
Лучший релиз за месяц (1)
  • Личное сообщение
  • ICQ

Вернуться в Отечественные сериалы

Кто сейчас на конференции

Зарегистрированные пользователи: нет зарегистрированных пользователей

Ресурс не предоставляет электронные версии произведений, а занимается лишь коллекционированием и каталогизацией ссылок, присылаемых и публикуемых на форуме нашими читателями. Если вы являетесь правообладателем какого-либо представленного материала и не желаете чтобы ссылка на него находилась в нашем каталоге, свяжитесь с нами и мы незамедлительно удалим её. Файлы для обмена на трекере предоставлены пользователями сайта, и администрация не несёт ответственности за их содержание. Просьба не заливать файлы, защищенные авторскими правами, а также файлы нелегального содержания!
cron