Красная королева (2015) SATRip [H.264] (1-12 серия из 12) скачать торрент

Русские сериалы, все серии, все сезоны, последний сезон, новые серии

Модератор: Модераторы видео

  • Статистика раздачи
Размер: 6.45 ГБ   |  Зарегистрирован: 16 мар 2016, 03:00   |   .torrent скачан: 4 раз
Сидеров: 55  [ 0 байт/сек ]     Личеров: 17  [ 0 байт/сек ]  
Список файлов : Кто скачал : Раздают : Скачивают : Кто благодарил : История : Не раздающие : Запрашивали сидеров : Внешние трекеры 
  

Красная королева (2015) SATRip [H.264] (1-12 серия из 12)

Сообщение Админ » 16 мар 2016, 03:00

Красная королева (2015) SATRip [H.264] (1-12 серия из 12)

Производство: Россия, Украина / FILM.UA и Shpil и "Пронто фильм"
Жанр: биография, драма

Режиссер: Алена Семенова
Актеры: Ксения Лукьянчикова, Анатолий Руденко, Артём Ткаченко, Ада Роговцева, Елена Морозова, Татьяна Орлова, Валерий Баринов, Анна Здор, Наталья Высочанская, Анастасия Евграфова, Анна Сагайдачная и др.

Описание:
Сюжет основан на фактах биографии известной советской манекенщицы Регины Збарской. Ее называли "советской Софи Лорен" и "самым красивым оружием Кремля". Ею восхищались Пьер Карден, Кристиан Диор и Федерико Феллини. Но кем была эта гордая красавица на самом деле? Почему она отказалась от своего имени? Как пришла к успеху? И какую цену за него заплатила? Жизнь одной из самых известных манекенщиц Советского Союза и первой советской модели, ставшей известной на Западе, полна тайн...


Дата премьеры в мире: 05 октября 2015 (Интер)

Продолжительность: ~ 00:49:00 серия
Качество видео: SATRip

Видео: AVC/H.264, 720x376, ~1358 Кбит/сек
Аудио: AC3, 2 канала, 192 Кбит/сек, CBR
Код:
Код: Выделить всё
Общее
Уникальный идентификатор                 : 223143923950905608914484450937256067095 (0xA7DFF4DD7ACC53309A47AC19C248C017)
Полное имя                               : E:\Красная королева\01 серия.mkv
Формат                                   : Matroska
Версия формата                           : Version 2
Размер файла                             : 551 Мбайт
Продолжительность                        : 49 м.
Общий поток                              : 1552 Кбит/сек
Дата кодирования                         : UTC 2015-10-06 22:43:59
Программа кодирования                    : mkvmerge v7.8.0 ('River Man') 32bit built on Apr  3 2015 12:11:22
Библиотека кодирования                   : libebml v1.3.1 + libmatroska v1.4.2

Видео
Идентификатор                            : 1
Формат                                   : AVC
Формат/Информация                        : Advanced Video Codec
Профиль формата                          :
Параметр CABAC формата                   : Да
Параметр ReFrames формата                : 9 кадров
Идентификатор кодека                     : V_MPEG4/ISO/AVC
Продолжительность                        : 49 м.
Битрейт                                  : 1358 Кбит/сек
Ширина                                   : 720 пикселей
Высота                                   : 376 пикселей
Соотношение сторон                       : 1,915
Режим частоты кадров                     : Постоянный
Частота кадров                           : 25,000 кадров/сек
Цветовое пространство                    : YUV
Субдискретизация насыщенности            : 4:2:0
Битовая глубина                          : 8 бит
Тип развёртки                            : Прогрессивная
Бит/(Пиксели*Кадры)                      : 0.201
Размер потока                            : 472 Мбайт (86%)
Библиотека кодирования                   : x264 core 146 r2538 121396c
Настройки программы                      : cabac=1 / ref=9 / deblock=1:-3:-3 / analyse=0x3:0x133 / me=umh / subme=9 / psy=1 / psy_rd=1.00:0.00 / mixed_ref=0 / me_range=16 / chroma_me=1 / trellis=2 / 8x8dct=1 / cqm=0 / deadzone=21,11 / fast_pskip=1 / chroma_qp_offset=-2 / threads=2 / lookahead_threads=4 / sliced_threads=0 / nr=0 / decimate=1 / interlaced=0 / bluray_compat=0 / constrained_intra=0 / bframes=9 / b_pyramid=2 / b_adapt=1 / b_bias=0 / direct=3 / weightb=1 / open_gop=0 / weightp=2 / keyint=250 / keyint_min=25 / scenecut=40 / intra_refresh=0 / rc_lookahead=40 / rc=2pass / mbtree=1 / bitrate=1358 / ratetol=1.0 / qcomp=0.60 / qpmin=0 / qpmax=69 / qpstep=4 / cplxblur=20.0 / qblur=0.5 / ip_ratio=1.40 / aq=1:1.20
Default                                  : Да
Forced                                   : Нет
Цветовой диапазон                        : Limited
Основные цвета                           : BT.601 PAL
Характеристики трансфера                 : BT.470 System B, BT.470 System G
Коэффициенты матрицы                     : BT.601

Аудио
Идентификатор                            : 2
Формат                                   : AC-3
Формат/Информация                        : Audio Coding 3
Расширение режима                        : CM (complete main)
Параметр Endianness формата              : Big
Идентификатор кодека                     : A_AC3
Продолжительность                        : 49 м.
Вид битрейта                             : Постоянный
Битрейт                                  : 192 Кбит/сек
Каналы                                   : 2 канала
Расположение каналов                     : Front: L R
Частота                                  : 48,0 КГц
Метод сжатия                             : С потерями
Размер потока                            : 68,1 Мбайт (12%)
Default                                  : Да
Forced                                   : Нет

Скриншоты:

   
Торрент: Зарегистрирован [16 мар 2016, 03:00] За каждые 2 ГБ. аплоада (сидирования) этого торрента начисляется бонус: 0.001 Скачать торрент
Скачать торрент
О MediaGet
[ Размер 33.55 КБ / Просмотров 272 ]

Статус:
 
Приватный: Нет (DHT включён)
Размер: 6.45 ГБ (6 928 628 286 байт)
   
Аватара пользователя

Администратор
Администратор
 
Раздал: 2.33 ПБ
Скачал: 1.02 ПБ
Ратио: 2.281
Сообщения: 3723
Зарегистрирован: 07 май 2010, 17:29
Medals: 1
Лучший релиз за месяц (1)
  • Личное сообщение
  • ICQ

Вернуться в Отечественные сериалы

Кто сейчас на конференции

Зарегистрированные пользователи: нет зарегистрированных пользователей

Ресурс не предоставляет электронные версии произведений, а занимается лишь коллекционированием и каталогизацией ссылок, присылаемых и публикуемых на форуме нашими читателями. Если вы являетесь правообладателем какого-либо представленного материала и не желаете чтобы ссылка на него находилась в нашем каталоге, свяжитесь с нами и мы незамедлительно удалим её. Файлы для обмена на трекере предоставлены пользователями сайта, и администрация не несёт ответственности за их содержание. Просьба не заливать файлы, защищенные авторскими правами, а также файлы нелегального содержания!
cron