Быстрый взгляд на Бали и Сингапур в 3Д / The quick look at Bali and Singapore in 3D [2013, Документальный любительский фильм, HDTV] Half OverUnder / Вертикальная анаморфная стереопара скачать торрент

Документальные Фильмы в 3Д, 3D Video, Вертикальная стереопара, анаморфная стереопара, Анаглиф

Модератор: Модераторы видео

  • Статистика раздачи
Размер: 3.59 ГБ   |  Зарегистрирован: 04 фев 2015, 19:36   |   .torrent скачан: 1 раз
Сидеров: 3  [ 0 байт/сек ]     Личеров: 0  [ 0 байт/сек ]  
Список файлов : Кто скачал : Раздают : Скачивают : Кто благодарил : История : Не раздающие : Запрашивали сидеров : Внешние трекеры 
  

Быстрый взгляд на Бали и Сингапур в 3Д / The quick look at Bali and Singapore in 3D [2013, Документальный любительский фильм, HDTV] Half OverUnder / Вертикальная анаморфная стереопара

Сообщение Боцман » 04 фев 2015, 19:36

Быстрый взгляд на Бали и Сингапур в 3D / The quick look at Bali and Singapore in 3D

Год выпуска: 2013
Страна: Россия
Жанр: Документальный любительский фильм
Продолжительность: 00:42:07

Перевод: Не требуется
Русские субтитры: нет
Режиссер на русском: Дмитрий Чуприс
Режиссер на английском: Dmitry Chupris
Описание: Обзорный Документальный фильм призван ознакомить зрителя с основными достопримечательностями острова Бали, Индонезия, а также Сингапура. Вы увидите древние храмовые комплексы Балийцев, высеченные в скалах монументы, предназначение которых неизвестно, а также красивейшие Азиатские пейзажи. Также вы познакомитесь с сердцем традиционных ремесел жителей острова - местечком Убуд, посмотрите на два вулкана одновременно, увидите суперсовременную центральную часть Сингапура и остров Сентоза.

Качество: HDTV
Контейнер: mp4
Формат 3D: Half OverUnder / Вертикальная анаморфная стереопара
Видео кодек: MPEG-4
Аудио кодек: AAC
Видео: MPEG-4/AVC [email protected], 1920x1080p (16:9), 29.970 fps, ~11800 Kbps (VBR)
Аудио: AAC 384 Кбит/сек, 48,0 Кгц,16 Бит, Стерео
Субтитры: отсутствуют
General
Complete name : \\Diskstation\upload\The quick look at Bali and Singapore in 3D_1080p_HalfOverUnder.mp4
Format : MPEG-4
Format profile : JVT
Codec ID : avc1
File size : 3.59 GiB
Duration : 42mn 7s
Overall bit rate mode : Variable
Overall bit rate : 12.2 Mbps
Encoded date : UTC 2013-05-01 05:04:02
Tagged date : UTC 2013-05-01 05:04:02

Video
ID : 1
Format : AVC
Format/Info : Advanced Video Codec
Format profile : [email protected]
Format settings, CABAC : Yes
Format settings, ReFrames : 2 frames
Codec ID : avc1
Codec ID/Info : Advanced Video Coding
Duration : 42mn 7s
Bit rate mode : Variable
Bit rate : 11.8 Mbps
Maximum bit rate : 15.0 Mbps
Width : 1 920 pixels
Height : 1 080 pixels
Display aspect ratio : 16:9
Frame rate mode : Constant
Frame rate : 29.970 fps
Color space : YUV
Chroma subsampling : 4:2:0
Bit depth : 8 bits
Scan type : Progressive
Bits/(Pixel*Frame) : 0.190
Stream size : 3.47 GiB (97%)
Language : English
Encoded date : UTC 2013-05-01 05:04:02
Tagged date : UTC 2013-05-01 05:04:02

Audio
ID : 2
Format : AAC
Format/Info : Advanced Audio Codec
Format profile : LC
Codec ID : 40
Duration : 42mn 7s
Source duration : 42mn 7s
Bit rate mode : Constant
Bit rate : 384 Kbps
Channel(s) : 2 channels
Channel positions : Front: L R
Sampling rate : 48.0 KHz
Compression mode : Lossy
Delay relative to video : -33ms
Stream size : 116 MiB (3%)
Source stream size : 116 MiB (3%)
Language : English
Encoded date : UTC 2013-05-01 05:04:02
Tagged date : UTC 2013-05-01 05:04:02



Видео протестировано на нескольких медиаплеерах, а также разных моделях 3D телевизоров (LG 50px960 и Samsung UE46ES7207U).
На съемках использовалась 3D видеокамера JVC GS-TD1, версия для Японского рынка, то есть стандарта NTSC, что позволяет создавать видео с честным прогрессивом 30 кадров/сек. Это хорошо сказывается на плавности движений и панорамировании. Там где возможно, использовался трипод.
   
Торрент: Зарегистрирован [04 фев 2015, 19:36] Скачать торрент
Скачать торрент
[ Размер 18.57 КБ / Просмотров 194 ]

Статус:
 
Приватный: Нет (DHT включён)
Размер: 3.59 ГБ (3 851 332 946 байт)
   
Хочешь стать частью команды MZ-Tracker?
Запишись
ТУТ
Аватара пользователя

Убийца клавиатуры
Убийца клавиатуры
 
Раздал: 12.57 ГБ
Скачал: 907.51 ГБ
Ратио: 0.017
Сообщения: 4358
Фото: 292
Зарегистрирован: 19 июн 2008, 23:00

  • Похожие торренты
    Ответы
    Просмотры
    Последнее сообщение

Вернуться в 3D Документальные фильмы

Кто сейчас на конференции

Зарегистрированные пользователи: нет зарегистрированных пользователей

Ресурс не предоставляет электронные версии произведений, а занимается лишь коллекционированием и каталогизацией ссылок, присылаемых и публикуемых на форуме нашими читателями. Если вы являетесь правообладателем какого-либо представленного материала и не желаете чтобы ссылка на него находилась в нашем каталоге, свяжитесь с нами и мы незамедлительно удалим её. Файлы для обмена на трекере предоставлены пользователями сайта, и администрация не несёт ответственности за их содержание. Просьба не заливать файлы, защищенные авторскими правами, а также файлы нелегального содержания!
cron