Мюнхен / Munich 3D (КИВ) [2013, Документальное кино-путеводитель, HDTV] Anamorph SideBySide / Горизонтальная анаморфная стереопара скачать торрент

Документальные Фильмы в 3Д, 3D Video, Вертикальная стереопара, анаморфная стереопара, Анаглиф

Модератор: Модераторы видео

  • Статистика раздачи
Размер: 4.85 ГБ   |  Зарегистрирован: 04 фев 2015, 19:31   |   .torrent скачан: 0 раз
Сидеров: 0  [ 0 байт/сек ]     Личеров: 0  [ 0 байт/сек ]  
Список файлов : Кто скачал : Раздают : Скачивают : Кто благодарил : История : Не раздающие : Запрашивали сидеров : Внешние трекеры 
  

Мюнхен / Munich 3D (КИВ) [2013, Документальное кино-путеводитель, HDTV] Anamorph SideBySide / Горизонтальная анаморфная стереопара

Сообщение Боцман » 04 фев 2015, 19:31

Год выпуска: 2013
Страна: Россия
Жанр: Документальное,любительское кино-путеводитель
Продолжительность: 0:43:27

Перевод: Не требуется
Русские субтитры: нет


Состав и описание раздачи:
Мюнхен, Германия — город-жемчужина Центральной Европы, столица федеральной земли Бавария,
расположившаяся на реке Изар на юге страны. Город Мюнхен — один из самых привлекательных в регионе с туристической точки зрения, с богатой историей и культурными традициями.
Центральная площадь города, на которой стоит колонна Девы Марии, поставленная Максимилианом I — Мариенплац ,
в районе которой расположены многие достопримечательности,в том числе старая и новая ратушаю
Мюнхен славится своими пивоваренными традициями. В городе находятся шесть крупных пивоварен, которые снабжают пивом знаменитый на весь мир Октоберфест — праздник пива,
кренделей, жареных курочек и каруселей, ежегодно проводящийся в конце сентября — начале октября на Терезином лугу.




Качество: HDTV
Контейнер: MKV
Формат 3D: Half SideBySide / Горизонтальная анаморфная стереопара
Порядок ракурсов: левый ракурс первый
Видео кодек: AVC
Аудио кодек: AC3
Видео: 15,2 Мбит/сек, 1920х1080p, 16:9, 25 кадров/сек. (PAL)
Аудио: 448 Кбит/сек, 48,0 Кгц,16 Бит, 6 Каналов.
General
Complete name : S:\Моё кино архив\Моё HD кино в 3D для инета\Кино\Мюнхен3D(КИВ)-инет(Стереопара).mpg.mkv
Format : Matroska
Format version : Version 1
File size : 4.85 GiB
Duration : 43mn 27s
Overall bit rate mode : Variable
Overall bit rate : 16.0 Mbps
Writing application : Matroska Muxer v1.0.0
Writing library : libebml v0.7.8 + libmatroska v0.8.1

Video
ID : 1
Format : AVC
Format/Info : Advanced Video Codec
Format profile : [email protected]
Format settings, CABAC : Yes
Format settings, ReFrames : 2 frames
Codec ID : V_MS/VFW/FOURCC / H264
Duration : 43mn 27s
Bit rate mode : Variable
Bit rate : 15.2 Mbps
Maximum bit rate : 17.0 Mbps
Width : 1 920 pixels
Height : 1 080 pixels
Display aspect ratio : 16:9
Frame rate mode : Constant
Frame rate : 25.000 fps
Color space : YUV
Chroma subsampling : 4:2:0
Bit depth : 8 bits
Scan type : Interlaced
Bits/(Pixel*Frame) : 0.294
Stream size : 4.62 GiB (95%)
Language : English
Default : Yes
Forced : No

Audio
ID : 2
Format : AC-3
Format/Info : Audio Coding 3
Mode extension : CM (complete main)
Format settings, Endianness : Big
Codec ID : A_AC3
Duration : 43mn 27s
Bit rate mode : Constant
Bit rate : 448 Kbps
Channel(s) : 6 channels
Channel positions : Front: L C R, Side: L R, LFE
Sampling rate : 48.0 KHz
Bit depth : 16 bits
Compression mode : Lossy
Stream size : 139 MiB (3%)
Language : English
Default : Yes
Forced : No
   
Торрент: Зарегистрирован [04 фев 2015, 19:31] Скачать торрент
Скачать торрент
[ Размер 12.66 КБ / Просмотров 64 ]

Статус:
 
Приватный: Нет (DHT включён)
Размер: 4.85 ГБ (5 211 227 213 байт)
   
Хочешь стать частью команды MZ-Tracker?
Запишись
ТУТ
Аватара пользователя

Убийца клавиатуры
Убийца клавиатуры
 
Раздал: 12.57 ГБ
Скачал: 907.51 ГБ
Ратио: 0.017
Сообщения: 4358
Фото: 292
Зарегистрирован: 19 июн 2008, 23:00

  • Похожие торренты
    Ответы
    Просмотры
    Последнее сообщение

Вернуться в 3D Документальные фильмы

Кто сейчас на конференции

Зарегистрированные пользователи: нет зарегистрированных пользователей

Ресурс не предоставляет электронные версии произведений, а занимается лишь коллекционированием и каталогизацией ссылок, присылаемых и публикуемых на форуме нашими читателями. Если вы являетесь правообладателем какого-либо представленного материала и не желаете чтобы ссылка на него находилась в нашем каталоге, свяжитесь с нами и мы незамедлительно удалим её. Файлы для обмена на трекере предоставлены пользователями сайта, и администрация не несёт ответственности за их содержание. Просьба не заливать файлы, защищенные авторскими правами, а также файлы нелегального содержания!
cron