Дикий океан 3Д / Wild Ocean 3D [2008 г., Документальный, BDRip-AVC] IMAX, Half SideBySide / Горизонтальная анаморфная стереопара скачать торрент

Документальные Фильмы в 3Д, 3D Video, Вертикальная стереопара, анаморфная стереопара, Анаглиф

Модератор: Модераторы видео

  • Статистика раздачи
Размер: 3.24 ГБ   |  Зарегистрирован: 04 фев 2015, 19:31   |   .torrent скачан: 2 раз
Сидеров: 0  [ 0 байт/сек ]     Личеров: 0  [ 0 байт/сек ]  
Список файлов : Кто скачал : Раздают : Скачивают : Кто благодарил : История : Не раздающие : Запрашивали сидеров : Внешние трекеры 
  

Дикий океан 3Д / Wild Ocean 3D [2008 г., Документальный, BDRip-AVC] IMAX, Half SideBySide / Горизонтальная анаморфная стереопара

Сообщение Боцман » 04 фев 2015, 19:31

Дикий океан 3D / Wild Ocean 3D

[font=tahoma]Год выпуска: 2008
Страна: США
Жанр: Документальный
Продолжительность: 00:42:11
Перевод: Отсутствует
Русские субтитры: нет
Режиссер: Люк Крессвелл, Стив МакНиколас
Описание: Погрузитесь в невероятный безумный мир дельфинов, китов, акул, тюленей и тысяч разновидностей рыбы! Снятый в далекой рыбачьей деревушке у побережья Южной Африки, фильм ЖИВОЙ ОКЕАН заставляет по-новому взглянуть на жизнь обитателей морских глубин и задуматься о том, насколько их будущее, да и будущее всего океана зависит от Человека и его взаимодействия с природой. У побережья ЮАР, там, где Африка встречается с океаном, надежда жива....
Доп. информация: Для просмотра понадобится стереоплеер, через него можно смотреть с любыми видами очков и стереомониторов.
Качество: BDRip
Формат: MKV
Формат 3D: Half SideBySide / Горизонтальная анаморфная стереопара
Видео кодек: H.264
Аудио кодек: DTS
Видео: MPEG4 Video (H264) 1920x1080 23.98fps, 9 262 Kbps,
Format : Matroska
File size : 3.24 GiB
Duration : 42mn 13s
Overall bit rate : 11.0 Mbps
Encoded date : UTC 2010-11-04 00:11:15
Writing application : mkvmerge v4.3.0 ('Escape from the Island') gemaakt op Sep 5 2010 10:30:51
Writing library : libebml v1.0.0 + libmatroska v1.0.0

Video
ID : 1
Format : AVC
Format/Info : Advanced Video Codec
Format profile : [email protected]
Format settings, CABAC : Yes
Format settings, ReFrames : 4 frames
Codec ID : V_MPEG4/ISO/AVC
Duration : 42mn 13s
Bit rate : 9 262 Kbps
Nominal bit rate : 10 000 Kbps
Width : 1 920 pixels
Height : 1 080 pixels
Display aspect ratio : 16:9
Frame rate mode : Variable
Frame rate : 23.976 fps
Color space : YUV
Chroma subsampling : 4:2:0
Bit depth : 8 bits
Scan type : Progressive
Bits/(Pixel*Frame) : 0.186
Stream size : 2.73 GiB (84%)
Writing library : x264 core 107 r1745 4785e8e
Encoding settings : cabac=1 / ref=3 / deblock=1:0:0 / analyse=0x3:0x113 / me=hex / subme=7 / psy=1 / psy_rd=1.00:0.00 / mixed_ref=1 / me_range=16 / chroma_me=1 / trellis=1 / 8x8dct=1 / cqm=0 / deadzone=21,11 / fast_pskip=1 / chroma_qp_offset=-2 / threads=4 / sliced_threads=0 / nr=0 / decimate=1 / interlaced=0 / constrained_intra=0 / bframes=3 / b_pyramid=2 / b_adapt=1 / b_bias=0 / direct=1 / weightb=1 / open_gop=0 / weightp=2 / keyint=250 / keyint_min=25 / scenecut=40 / intra_refresh=0 / rc_lookahead=40 / rc=abr / mbtree=1 / bitrate=10000 / ratetol=1.0 / qcomp=0.60 / qpmin=10 / qpmax=51 / qpstep=4 / ip_ratio=1.41 / aq=1:1.00

Audio
ID : 2
Format : DTS
Format/Info : Digital Theater Systems
Codec ID : A_DTS
Duration : 42mn 13s
Bit rate mode : Constant
Bit rate : 1 510 Kbps
Channel(s) : 6 channels
Channel positions : Front: L C R, Side: L R, LFE
Sampling rate : 48.0 KHz
Bit depth : 24 bits
Stream size : 456 MiB (14%)
   
Торрент: Зарегистрирован [04 фев 2015, 19:31] Скачать торрент
Скачать торрент
[ Размер 16.71 КБ / Просмотров 97 ]

Статус:
 
Приватный: Нет (DHT включён)
Размер: 3.24 ГБ (3 481 144 781 байт)
   
Хочешь стать частью команды MZ-Tracker?
Запишись
ТУТ
Аватара пользователя

Убийца клавиатуры
Убийца клавиатуры
 
Раздал: 12.57 ГБ
Скачал: 907.51 ГБ
Ратио: 0.017
Сообщения: 4358
Фото: 292
Зарегистрирован: 19 июн 2008, 23:00

Вернуться в 3D Документальные фильмы

Кто сейчас на конференции

Зарегистрированные пользователи: нет зарегистрированных пользователей

Ресурс не предоставляет электронные версии произведений, а занимается лишь коллекционированием и каталогизацией ссылок, присылаемых и публикуемых на форуме нашими читателями. Если вы являетесь правообладателем какого-либо представленного материала и не желаете чтобы ссылка на него находилась в нашем каталоге, свяжитесь с нами и мы незамедлительно удалим её. Файлы для обмена на трекере предоставлены пользователями сайта, и администрация не несёт ответственности за их содержание. Просьба не заливать файлы, защищенные авторскими правами, а также файлы нелегального содержания!
cron