Дикий океан в 3Д / Wild Ocean 3D (Люк Крессвелл / Luke Cresswell) [2008, документальный, BDrip-AVC] Half OverUnder / Вертикальная анаморфная стереопара IMAX скачать торрент

Документальные Фильмы в 3Д, 3D Video, Вертикальная стереопара, анаморфная стереопара, Анаглиф

Модератор: Модераторы видео

  • Статистика раздачи
Размер: 6.74 ГБ   |  Зарегистрирован: 04 фев 2015, 19:30   |   .torrent скачан: 0 раз
Сидеров: 0  [ 0 байт/сек ]     Личеров: 0  [ 0 байт/сек ]  
Список файлов : Кто скачал : Раздают : Скачивают : Кто благодарил : История : Не раздающие : Запрашивали сидеров : Внешние трекеры 
  

Дикий океан в 3Д / Wild Ocean 3D (Люк Крессвелл / Luke Cresswell) [2008, документальный, BDrip-AVC] Half OverUnder / Вертикальная анаморфная стереопара IMAX

Сообщение Боцман » 04 фев 2015, 19:30

Дикий океан / IMAX - Wild Ocean

Год выпуска: 2008
Страна: США
Студия: Universal
Жанр: Документальный
Продолжительность: 00:42:13

Перевод: Студийный (одноголосый закадровый)
Русские субтитры: есть
Режиссер на русском: Люк Крессвелл
Режиссер на английском: Luke Cresswell
Описание: Погрузитесь в невероятный безумный мир дельфинов, китов, акул, тюленей и тысяч разновидностей рыбы! Снятый в далекой рыбачьей деревушке у побережья Южной Африки, фильм ЖИВОЙ ОКЕАН заставляет по-новому взглянуть на жизнь обитателей морских глубин и задуматься о том, насколько их будущее, да и будущее всего океана зависит от Человека и его взаимодействия с природой. У побережья ЮАР, там, где Африка встречается с океаном, надежда жива.

Семпл: http://multi-up.com/759396

Качество: BDrip
Контейнер: MKV
Формат 3D: Half OverUnder / Вертикальная анаморфная стереопара
Порядок ракурсов: левый ракурс первый
Видео кодек: x264
Аудио кодек: AC3
Видео: 1920x1080, 23.976 fps, [email protected] ~ 21590 kbps, 0.43 bit/pixel
Аудио #1: 48 kHz, AC3 Dolby Digital, 3/2 (L,C,R,l,r) + LFE ch, ~640 kbps [Rus]
Аудио #2: 48 kHz, AC3 Dolby Digital, 3/2 (L,C,R,l,r) + LFE ch, ~640 kbps [Eng]
Субтитры: Русские (Full, Forced)
x264 [info]: frame I:293 Avg QP:15.23
x264 [info]: frame P:16225 Avg QP:17.03
x264 [info]: frame B:44188 Avg QP:18.20

Общее
Уникальный идентификатор : 238838621681364078038012481772805389915 (0xB3AEA534D21F931E818DF1CF33D37E5B)
Полное имя : Дикий океан (2008) BDRip 3D.mkv
Формат : Matroska
Версия формата : Version 2
Размер файла : 6,74 Гбайт
Продолжительность : 42 м.
Общий поток : 22,9 Мбит/сек
Дата кодирования : UTC 2012-09-11 18:45:21
Программа кодирования : mkvmerge v3.4.0 ('Rapunzel') сборка от May 15 2010 09:38:20
Библиотека кодирования : libebml v0.8.0 + libmatroska v0.9.0

Видео
Идентификатор : 1
Формат : AVC
Формат/Информация : Advanced Video Codec
Профиль формата : [email protected]
Параметр CABAC формата : Да
Параметр ReFrames формата : 4 кадра
Идентификатор кодека : V_MPEG4/ISO/AVC
Битрейт : 21,6 Мбит/сек
Ширина : 1920 пикселей
Высота : 1080 пикселей
Соотношение сторон : 16:9
Режим частоты кадров : Переменный
Частота кадров в оригинале : 23,976 кадра/сек
Цветовое пространство : YUV
Субдискретизация насыщенности : 4:2:0
Битовая глубина : 8 бит
Тип развёртки : Прогрессивная
Бит/(Пиксели*Кадры) : 0.434
Заголовок : IMAX - Wild Ocean (2008) BDRip 3D
Библиотека кодирования : x264 core 125 r2208 d9d2288
Настройки программы : cabac=1 / ref=4 / deblock=1:-3:-3 / analyse=0x3:0x113 / me=umh / subme=9 / psy=1 / psy_rd=1.00:0.00 / mixed_ref=1 / me_range=32 / chroma_me=1 / trellis=2 / 8x8dct=1 / cqm=0 / deadzone=21,11 / fast_pskip=0 / chroma_qp_offset=-2 / threads=12 / lookahead_threads=2 / sliced_threads=0 / nr=0 / decimate=0 / interlaced=0 / bluray_compat=0 / constrained_intra=0 / bframes=6 / b_pyramid=2 / b_adapt=2 / b_bias=0 / direct=1 / weightb=1 / open_gop=0 / weightp=2 / keyint=250 / keyint_min=23 / scenecut=40 / intra_refresh=0 / rc=2pass / mbtree=0 / bitrate=21590 / ratetol=1.0 / qcomp=0.60 / qpmin=10 / qpmax=51 / qpstep=4 / cplxblur=20.0 / qblur=0.5 / frame-packing=4 / ip_ratio=1.40 / pb_ratio=1.30 / aq=1:1.00
Язык : English
Default : Да
Forced : Нет

Аудио #1
Идентификатор : 2
Формат : AC-3
Формат/Информация : Audio Coding 3
Расширение режима : CM (complete main)
Параметр Endianness формата : Big
Идентификатор кодека : A_AC3
Продолжительность : 42 м.
Вид битрейта : Постоянный
Битрейт : 640 Кбит/сек
Каналы : 6 каналов
Расположение каналов : Front: L C R, Side: L R, LFE
Частота : 48,0 КГц
Битовая глубина : 16 бит
Метод сжатия : С потерями
Размер потока : 193 Мбайт (3%)
Заголовок : AC3 5.1 @ 640 kbps
Язык : Russian
Default : Да
Forced : Нет

Аудио #2
Идентификатор : 3
Формат : AC-3
Формат/Информация : Audio Coding 3
Расширение режима : CM (complete main)
Параметр Endianness формата : Big
Идентификатор кодека : A_AC3
Продолжительность : 42 м.
Вид битрейта : Постоянный
Битрейт : 640 Кбит/сек
Каналы : 6 каналов
Расположение каналов : Front: L C R, Side: L R, LFE
Частота : 48,0 КГц
Битовая глубина : 16 бит
Метод сжатия : С потерями
Размер потока : 193 Мбайт (3%)
Заголовок : AC3 5.1 @ 640 kbps
Язык : English
Default : Нет
Forced : Нет

Текст #1
Идентификатор : 4
Формат : UTF-8
Идентификатор кодека : S_TEXT/UTF8
Идентификатор кодека/Информация : UTF-8 Plain Text
Заголовок : [SRT/UTF8] Forced
Язык : Russian
Default : Да
Forced : Нет

Текст #2
Идентификатор : 5
Формат : UTF-8
Идентификатор кодека : S_TEXT/UTF8
Идентификатор кодека/Информация : UTF-8 Plain Text
Заголовок : [SRT/UTF8] Full
Язык : Russian
Default : Нет
Forced : Нет


   
Торрент: Зарегистрирован [04 фев 2015, 19:30] За каждые 2 ГБ. аплоада (сидирования) этого торрента начисляется бонус: 0.001 Скачать торрент
Скачать торрент
[ Размер 17.45 КБ / Просмотров 61 ]

Статус:
 
Приватный: Нет (DHT включён)
Размер: 6.74 ГБ (7 238 105 273 байт)
   
Хочешь стать частью команды MZ-Tracker?
Запишись
ТУТ
Аватара пользователя

Убийца клавиатуры
Убийца клавиатуры
 
Раздал: 12.57 ГБ
Скачал: 907.51 ГБ
Ратио: 0.017
Сообщения: 4358
Фото: 292
Зарегистрирован: 19 июн 2008, 23:00

Вернуться в 3D Документальные фильмы

Кто сейчас на конференции

Зарегистрированные пользователи: нет зарегистрированных пользователей

Ресурс не предоставляет электронные версии произведений, а занимается лишь коллекционированием и каталогизацией ссылок, присылаемых и публикуемых на форуме нашими читателями. Если вы являетесь правообладателем какого-либо представленного материала и не желаете чтобы ссылка на него находилась в нашем каталоге, свяжитесь с нами и мы незамедлительно удалим её. Файлы для обмена на трекере предоставлены пользователями сайта, и администрация не несёт ответственности за их содержание. Просьба не заливать файлы, защищенные авторскими правами, а также файлы нелегального содержания!
cron