Царское село в 3D (КИВ) [2013, документальное кино, HDTV, 1080i] Anamorph SideBySide/Горизонтальная анаморфная стереопара скачать торрент

Документальные Фильмы в 3Д, 3D Video, Вертикальная стереопара, анаморфная стереопара, Анаглиф

Модератор: Модераторы видео

  • Статистика раздачи
Размер: 6.15 ГБ   |  Зарегистрирован: 04 фев 2015, 19:30   |   .torrent скачан: 0 раз
Сидеров: 0  [ 0 байт/сек ]     Личеров: 0  [ 0 байт/сек ]  
Список файлов : Кто скачал : Раздают : Скачивают : Кто благодарил : История : Не раздающие : Запрашивали сидеров : Внешние трекеры 
  

Царское село в 3D (КИВ) [2013, документальное кино, HDTV, 1080i] Anamorph SideBySide/Горизонтальная анаморфная стереопара

Сообщение Боцман » 04 фев 2015, 19:30

Год выпуска: 2013
Страна: Россия
Жанр: Документальное Любительское кино. Видео-путешествие.
Продолжительность: 0:53:00
Перевод: Не требуется
Русские субтитры: нет


Состав и описание раздачи:
Государственный музей-заповедник "Царское Село" — выдающийся памятник мировой архитектуры и садово-паркового искусства XVIII - начала XX века. Великолепное созвездие талантливых зодчих, скульпторов, живописцев, садовых мастеров, инженеров воплощало амбициозные замыслы российских государей. В Царском Селе во всей полноте представлено разнообразие художественных стилей: русского барокко-рококо (Ф.-Б. Растрелли), классицизма (Ч. Камерон, Дж. Кваренги, В. Стасов и другие) и последующих стилистических направлений XIX - начала XX века. Все царствования, начиная с Петра I, оставили здесь свой отпечаток.
Роль композиционного ядра всего ансамбля играет Екатерининский дворец — грандиозные сооружение в стиле русского барокко. Поражают роскошью отделки Большой зал дворца и "золотая анфилада" парадных залов, среди которых — всемирно известная возрожденная Янтарная комната. Попав сюда, Вы почувствуете дух елизаветинской и екатерининской эпох, отчасти — эпохи императора Александра I.
На территории Екатерининского парка общей площадью 300 гектаров расположены архитектурные сооружения: от мраморных монументов до многочисленных павильонов, мостиков, экзотических сооружений, придающих паркам неповторимый характер.

Качество: HDTV
Контейнер: MPEG-Video
Формат 3D: AnamorphSideBySide / Горизонтальная анаморфная стереопара
Порядок ракурсов: левый ракурс первый
Видео кодек: MPEG-PS
Аудио кодек: AC-3
Видео: MPEG-VIDEO 15,8 Мбит/сек, 1920х1080, 16:9, 25 кадров/сек. (PAL)
Аудио: AC-3 448 Кбит/сек, 48,0 Кгц,16 Бит, 6 Каналов.
General
Complete name : F:\Моё кино архив\Моё HD кино в 3D для инета\Кино\Царское село-3D(Инет).mpg
Format : MPEG-PS
File size : 6.15 GiB
Duration : 53mn 14s
Overall bit rate mode : Variable
Overall bit rate : 16.5 Mbps

Video
ID : 224 (0xE0)
Format : MPEG Video
Format version : Version 2
Format profile : [email protected]
Format settings, BVOP : No
Format settings, Matrix : Custom
Format settings, GOP : M=3, N=15
Duration : 53mn 14s
Bit rate mode : Variable
Bit rate : 15.8 Mbps
Maximum bit rate : 17.0 Mbps
Width : 1 920 pixels
Height : 1 080 pixels
Display aspect ratio : 16:9
Frame rate : 25.000 fps
Color space : YUV
Chroma subsampling : 4:2:0
Bit depth : 8 bits
Scan type : Interlaced
Scan order : Top Field First
Compression mode : Lossy
Bits/(Pixel*Frame) : 0.304
Time code of first frame : 00:00:00:00
Time code source : Group of pictures header
Stream size : 5.86 GiB (95%)

Audio
ID : 189 (0xBD)-128 (0x80)
Format : AC-3
Format/Info : Audio Coding 3
Mode extension : CM (complete main)
Format settings, Endianness : Big
Muxing mode : DVD-Video
Duration : 53mn 14s
Bit rate mode : Constant
Bit rate : 448 Kbps
Channel(s) : 6 channels
Channel positions : Front: L C R, Side: L R, LFE
Sampling rate : 48.0 KHz
Bit depth : 16 bits
Compression mode : Lossy
Stream size : 171 MiB (3%)
   
Торрент: Зарегистрирован [04 фев 2015, 19:30] За каждые 2 ГБ. аплоада (сидирования) этого торрента начисляется бонус: 0.001 Скачать торрент
Скачать торрент
[ Размер 15.88 КБ / Просмотров 71 ]

Статус:
 
Приватный: Нет (DHT включён)
Размер: 6.15 ГБ (6 601 918 464 байт)
   
Хочешь стать частью команды MZ-Tracker?
Запишись
ТУТ
Аватара пользователя

Убийца клавиатуры
Убийца клавиатуры
 
Раздал: 12.57 ГБ
Скачал: 907.51 ГБ
Ратио: 0.017
Сообщения: 4358
Фото: 292
Зарегистрирован: 19 июн 2008, 23:00

  • Похожие торренты
    Ответы
    Просмотры
    Последнее сообщение

Вернуться в 3D Документальные фильмы

Кто сейчас на конференции

Зарегистрированные пользователи: нет зарегистрированных пользователей

Ресурс не предоставляет электронные версии произведений, а занимается лишь коллекционированием и каталогизацией ссылок, присылаемых и публикуемых на форуме нашими читателями. Если вы являетесь правообладателем какого-либо представленного материала и не желаете чтобы ссылка на него находилась в нашем каталоге, свяжитесь с нами и мы незамедлительно удалим её. Файлы для обмена на трекере предоставлены пользователями сайта, и администрация не несёт ответственности за их содержание. Просьба не заливать файлы, защищенные авторскими правами, а также файлы нелегального содержания!
cron