С.Петербург (канал Грибоедова) 3D (КИВ) [2014, Документальное кино-путеводитель, HDTV ] Half SideBySide / Горизонтальная анаморфная стереопара скачать торрент

Документальные Фильмы в 3Д, 3D Video, Вертикальная стереопара, анаморфная стереопара, Анаглиф

Модератор: Модераторы видео

  • Статистика раздачи
Размер: 3.59 ГБ   |  Зарегистрирован: 04 фев 2015, 19:30   |   .torrent скачан: 0 раз
Сидеров: 38  [ 0 байт/сек ]     Личеров: 0  [ 0 байт/сек ]  
Список файлов : Кто скачал : Раздают : Скачивают : Кто благодарил : История : Не раздающие : Запрашивали сидеров : Внешние трекеры 
  

С.Петербург (канал Грибоедова) 3D (КИВ) [2014, Документальное кино-путеводитель, HDTV ] Half SideBySide / Горизонтальная анаморфная стереопара

Сообщение Боцман » 04 фев 2015, 19:30

Санкт-Петербург (Канал Грибоедова)

Год выпуска: 2014
Жанр: Документальное кино-путеводитель
Продолжительность: 0:31:00

Русские субтитры: нет
Режиссер на русском: КИВ
Описание:
Санкт-Петербург является самым северным из городов мира с населением свыше 4 миллионов человек. Город расположен в северо-западной части России, в пределах Приневской низменности, на прилегающем к устью реки Невы побережье Невской губы Финского залива,основан 16 мая 1703 года императором Петром I.
Высокоширотным положением города объясняется явление белых ночей.

Канал Грибоедова по праву можно отнести к самым известным достопримечательностям в Санкт-Петербурге. Он расположен в центре Северной столицы и пересекает многие центральные магистрали, в том числе Невский проспект рядом с Казанским собором. Набережные канала Грибоедова – излюбленное место прогулок туристов, ведь здесь расположены старинные здания и храмы и перекинуты удивительно красивые мосты.


Качество: HDTV
Контейнер: MPEG-Video
Формат 3D: AnamorphSideBySide / Горизонтальная анаморфная стереопара
Порядок ракурсов: левый ракурс первый
Видео кодек: MPEG-PS
Аудио кодек: AC-3
Видео: MPEG-VIDEO 15,8 Мбит/сек, 1920х1080, 16:9, 25 кадров/сек. (PAL)
Аудио: AC-3 448 Кбит/сек, 48,0 Кгц,16 Бит, 6 Каналов.
General
Complete name : F:\Канал Грибоедова-3.mpg
Format : MPEG-PS
File size : 3.59 GiB
Duration : 31mn 1s
Overall bit rate mode : Variable
Overall bit rate : 16.6 Mbps

Video
ID : 224 (0xE0)
Format : MPEG Video
Format version : Version 2
Format profile : [email protected]
Format settings, BVOP : No
Format settings, Matrix : Custom
Format settings, GOP : M=3, N=15
Duration : 31mn 1s
Bit rate mode : Variable
Bit rate : 15.8 Mbps
Maximum bit rate : 18.0 Mbps
Width : 1 920 pixels
Height : 1 080 pixels
Display aspect ratio : 16:9
Frame rate : 25.000 fps
Color space : YUV
Chroma subsampling : 4:2:0
Bit depth : 8 bits
Scan type : Interlaced
Scan order : Top Field First
Compression mode : Lossy
Bits/(Pixel*Frame) : 0.305
Time code of first frame : 00:00:00:00
Time code source : Group of pictures header
Stream size : 3.42 GiB (95%)

Audio
ID : 189 (0xBD)-128 (0x80)
Format : AC-3
Format/Info : Audio Coding 3
Mode extension : CM (complete main)
Format settings, Endianness : Big
Muxing mode : DVD-Video
Duration : 31mn 1s
Bit rate mode : Constant
Bit rate : 448 Kbps
Channel(s) : 6 channels
Channel positions : Front: L C R, Side: L R, LFE
Sampling rate : 48.0 KHz
Bit depth : 16 bits
Compression mode : Lossy
Stream size : 99.4 MiB (3%)
   
Торрент: Зарегистрирован [04 фев 2015, 19:30] Скачать торрент
Скачать торрент
[ Размер 18.47 КБ / Просмотров 66 ]

Статус:
 
Приватный: Нет (DHT включён)
Размер: 3.59 ГБ (3 857 940 480 байт)
   
Хочешь стать частью команды MZ-Tracker?
Запишись
ТУТ
Аватара пользователя

Убийца клавиатуры
Убийца клавиатуры
 
Раздал: 12.57 ГБ
Скачал: 907.51 ГБ
Ратио: 0.017
Сообщения: 4358
Фото: 292
Зарегистрирован: 19 июн 2008, 23:00

  • Похожие торренты
    Ответы
    Просмотры
    Последнее сообщение

Вернуться в 3D Документальные фильмы

Кто сейчас на конференции

Зарегистрированные пользователи: нет зарегистрированных пользователей

Ресурс не предоставляет электронные версии произведений, а занимается лишь коллекционированием и каталогизацией ссылок, присылаемых и публикуемых на форуме нашими читателями. Если вы являетесь правообладателем какого-либо представленного материала и не желаете чтобы ссылка на него находилась в нашем каталоге, свяжитесь с нами и мы незамедлительно удалим её. Файлы для обмена на трекере предоставлены пользователями сайта, и администрация не несёт ответственности за их содержание. Просьба не заливать файлы, защищенные авторскими правами, а также файлы нелегального содержания!
cron