Государственный Эрмитаж в 3Д / The State Hermitage Museum 3D (Екатерина Шахунова) [2011, Документальный, Видовой, Искусство, BDrip-AVC] Half OverUnder / Вертикальная анаморфная стереопара скачать торрент

Документальные Фильмы в 3Д, 3D Video, Вертикальная стереопара, анаморфная стереопара, Анаглиф

Модератор: Модераторы видео

  • Статистика раздачи
Размер: 1.92 ГБ   |  Зарегистрирован: 04 фев 2015, 19:29   |   .torrent скачан: 12 раз
Сидеров: 3  [ 0 байт/сек ]     Личеров: 1  [ 0 байт/сек ]  
Список файлов : Кто скачал : Раздают : Скачивают : Кто благодарил : История : Не раздающие : Запрашивали сидеров : Внешние трекеры 
  

Государственный Эрмитаж в 3Д / The State Hermitage Museum 3D (Екатерина Шахунова) [2011, Документальный, Видовой, Искусство, BDrip-AVC] Half OverUnder / Вертикальная анаморфная стереопара

Сообщение Боцман » 04 фев 2015, 19:30

Государственный Эрмитаж
The State Hermitage Museum


Год выпуска: 2011
Страна: Россия (Amfora Media Ltd.)
Жанр: Документальный, Видовой, Искусство
Продолжительность: 00:41:48
Перевод: Не требуется

Режиссер: Екатерина Шахунова

Рассказчик: Иван Иванович Краско (Народный артист РФ)

Описание: Самый полный фильм о крупнейшем в России музее - Государственном Эрмитаже. Вы сможете насладиться его знаменитыми шедеврами и изумительными интерьерами великолепных дворцов; узнаете, как возник музейный комплекс. Познакомитесь с филиалами музея - Зимним Дворцом Петра I, Меншиковским дворцом, с экспозициями Генерального штаба и новым фондохранилищем Эрмитажа. Настоящей жемчужиной фильма стали уникальные кадры, снятые на крыше Эрмитажа в белую ночь.

Проверено на встроенном плейере ТВ Samsung UE-C7000


Качество: BDrip
Контейнер: MKV
Формат 3D: Half OverUnder / Вертикальная анаморфная стереопара
Порядок ракурсов: левый ракурс первый
Видео кодек: x264
Аудио кодек: AC3
Видео: AVC / 23,976 fps / 1920х1080p / 5171 Kbps
Аудио#1: Русский / AC3 / 48 KHz / 5.1 ch / 640 Kbps
Аудио#2: Английский / AC3 / 48 KHz / 5.1 ch / 640 Kbps
Субтитры: Отсутствуют
General
UniqueID : 243337961878615183274894057005913122770 (0xB7112FCE1D7E344BA93F294D2ACEA7D2)
Complete name : F:\Downloads\TheStateHermitageMuseum(3D)2011.halfOU(ash61).mkv
Format : Matroska
File size : 1.92 GiB
Duration : 41mn 49s
Overall bit rate : 6 582 Kbps
Movie name : Государственный Эрмитаж (3D) 2011 (ash61)
Encoded date : UTC 2012-04-04 03:39:08
Writing application : mkvmerge v3.4.0 ('Rapunzel') сборка от May 15 2010 09:38:20
Writing library : libebml v0.8.0 + libmatroska v0.9.0

Video
ID : 1
Format : AVC
Format/Info : Advanced Video Codec
Format profile : [email protected]
Format settings, CABAC : Yes
Format settings, ReFrames : 4 frames
Codec ID : V_MPEG4/ISO/AVC
Duration : 41mn 49s
Bit rate : 5 171 Kbps
Width : 1 920 pixels
Height : 1 080 pixels
Display aspect ratio : 16:9
Frame rate : 23.976 fps
Color space : YUV
Chroma subsampling : 4:2:0
Bit depth : 8 bits
Scan type : Progressive
Bits/(Pixel*Frame) : 0.104
Stream size : 1.51 GiB (79%)
Title : BDrip by ash61
Writing library : x264 core 119 r2106 07efeb4
Encoding settings : cabac=1 / ref=4 / deblock=1:-3:-3 / analyse=0x3:0x113 / me=umh / subme=9 / psy=1 / psy_rd=1.00:0.15 / mixed_ref=1 / me_range=16 / chroma_me=1 / trellis=2 / 8x8dct=1 / cqm=0 / deadzone=21,11 / fast_pskip=1 / chroma_qp_offset=-3 / threads=3 / sliced_threads=0 / nr=0 / decimate=1 / interlaced=0 / bluray_compat=0 / constrained_intra=0 / bframes=6 / b_pyramid=2 / b_adapt=2 / b_bias=0 / direct=3 / weightb=1 / open_gop=0 / weightp=2 / keyint=250 / keyint_min=23 / scenecut=40 / intra_refresh=0 / rc_lookahead=60 / rc=crf / mbtree=1 / crf=18.0 / qcomp=0.70 / qpmin=0 / qpmax=69 / qpstep=4 / vbv_maxrate=40000 / vbv_bufsize=40000 / crf_max=0.0 / nal_hrd=none / ip_ratio=1.40 / aq=1:0.70

Audio #1
ID : 2
Format : AC-3
Format/Info : Audio Coding 3
Mode extension : CM (complete main)
Codec ID : A_AC3
Duration : 41mn 49s
Bit rate mode : Constant
Bit rate : 640 Kbps
Channel(s) : 6 channels
Channel positions : Front: L C R, Side: L R, LFE
Sampling rate : 48.0 KHz
Bit depth : 16 bits
Compression mode : Lossy
Stream size : 191 MiB (10%)
Language : Russian

Audio #2
ID : 3
Format : AC-3
Format/Info : Audio Coding 3
Mode extension : CM (complete main)
Codec ID : A_AC3
Duration : 41mn 49s
Bit rate mode : Constant
Bit rate : 640 Kbps
Channel(s) : 6 channels
Channel positions : Front: L C R, Side: L R, LFE
Sampling rate : 48.0 KHz
Bit depth : 16 bits
Compression mode : Lossy
Stream size : 191 MiB (10%)
Language : English

Menu
00:00:00.000 : :1
00:06:33.268 : :2
00:13:18.256 : :3
00:20:40.114 : :4
00:26:29.296 : :5
00:34:13.843 : :6
   
Торрент: Зарегистрирован [04 фев 2015, 19:29] Скачать торрент
Скачать торрент
[ Размер 19.74 КБ / Просмотров 99 ]

Статус:
 
Приватный: Нет (DHT включён)
Размер: 1.92 ГБ (2 064 566 584 байт)
   
Хочешь стать частью команды MZ-Tracker?
Запишись
ТУТ
Аватара пользователя

Убийца клавиатуры
Убийца клавиатуры
 
Раздал: 12.57 ГБ
Скачал: 907.51 ГБ
Ратио: 0.017
Сообщения: 4358
Фото: 292
Зарегистрирован: 19 июн 2008, 23:00

Вернуться в 3D Документальные фильмы

Кто сейчас на конференции

Зарегистрированные пользователи: нет зарегистрированных пользователей

cron
Ресурс не предоставляет электронные версии произведений, а занимается лишь коллекционированием и каталогизацией ссылок, присылаемых и публикуемых на форуме нашими читателями. Если вы являетесь правообладателем какого-либо представленного материала и не желаете чтобы ссылка на него находилась в нашем каталоге, свяжитесь с нами и мы незамедлительно удалим её. Файлы для обмена на трекере предоставлены пользователями сайта, и администрация не несёт ответственности за их содержание. Просьба не заливать файлы, защищенные авторскими правами, а также файлы нелегального содержания!
cron